<?xml version="1.0" encoding="UTF-8" standalone="no"?> <svg xmlns="http://www.w3.org/2000/svg" xmlns:xlink="http://www.w3.org/1999/xlink" version="1.1"><metadata> Created by FontForge 20201107 at Fri Dec 18 01:22:29 2020 By Unknown Copyright The Monotype Corporation. All rights reserved. </metadata><defs><font id="CenturyGothicPro-Italic"><glyph glyph-name="fi" unicode="fi" d="M189 531h108l-7 -60h-110l-67 -471h-69l65 471h-68l9 60h70l8 53c17 111 73 165 169 165c82 0 134 -46 142 -131h-70c-6 44 -33 68 -74 68c-64 0 -89 -39 -99 -108zM358 531h69l-77 -531h-67z"></glyph><glyph glyph-name="fl" unicode="fl" d="M191 531h109l-9 -60h-109l-67 -471h-66l66 471h-73l7 60h73c20 134 54 219 170 219c82 0 141 -51 141 -148c0 -21 -3 -44 -6 -64l-74 -538h-70l79 555c2 15 3 35 3 49c0 51 -26 79 -75 79c-56 0 -82 -36 -93 -110z"></glyph><glyph glyph-name="f_f" unicode="ff" d="M347 471h-169l-67 -471h-68l65 471h-68l9 60h70l7 52c15 111 72 167 169 167c45 0 80 -13 105 -40c24 27 54 40 90 40c33 0 63 -11 92 -32l-9 -64c-29 23 -55 35 -78 35c-35 0 -58 -34 -67 -101l-8 -57h109l-7 -60h-109l-66 -471h-68zM195 579l-8 -48h167l6 47l7 43 c-8 43 -33 64 -74 64c-49 0 -85 -21 -98 -106z"></glyph><glyph glyph-name="f_f_i" unicode="ffi" d="M349 472h-168l-68 -472h-68l65 472h-68l9 59h70l7 52c15 111 72 167 170 167c50 0 88 -17 114 -52c31 35 73 52 124 52c85 0 135 -52 142 -132h-70c-6 45 -31 67 -75 67c-48 0 -85 -19 -98 -106l-7 -48h109l-8 -59h-110l-67 -472h-68zM197 579l-8 -48h171l7 52l4 27 c-6 50 -31 75 -75 75c-23 0 -44 -7 -62 -20c-17 -13 -30 -41 -37 -86zM597 531h69l-77 -531h-67z"></glyph><glyph glyph-name="f_f_l" unicode="ffl" d="M351 472h-167l-67 -472h-68l65 472h-69l9 59h71l7 52c15 111 72 167 169 167c49 0 87 -16 113 -49c28 33 66 49 113 49c80 0 141 -51 141 -146c0 -20 -2 -42 -5 -66l-75 -538h-69l78 555c3 21 5 37 5 50c0 52 -26 78 -77 78c-52 0 -83 -37 -92 -111l-6 -41h109l-9 -59 h-109l-67 -472h-66zM200 579l-7 -48h165c5 37 11 65 16 86c-7 45 -32 68 -74 68c-23 0 -44 -7 -62 -20s-31 -41 -38 -86z"></glyph><glyph glyph-name=".notdef" d="M12 0v665h475v-665h-475zM88 618l162 -243l161 243h-323zM60 575v-484c0 -1 161 242 161 242zM440 575l-162 -242l162 -243v485zM411 48l-161 242l-162 -242h323z"></glyph><glyph glyph-name="space" unicode=" "></glyph><glyph glyph-name="exclam" unicode="!" d="M81 179l74 557h67l-73 -557h-68zM101 105c33 0 59 -26 59 -59s-25 -60 -59 -60s-60 28 -60 60c0 33 27 59 60 59z"></glyph><glyph glyph-name="quotedbl" unicode="&quot;" d="M312 736l-11 -226h-50l-11 226h72zM122 736l-11 -226h-50l-11 226h72z"></glyph><glyph glyph-name="numbersign" unicode="#" d="M490 294h112v-53h-121l-35 -241h-54l35 241h-163l-37 -241h-54l37 241h-120v53h128l25 163h-123v53h131l34 229h53l-34 -229h163l33 229h54l-33 -229h109v-53h-117zM434 294l25 163h-163l-24 -163h162z"></glyph><glyph glyph-name="dollar" unicode="$" d="M373 772l-9 -59c65 -18 100 -46 140 -100l-56 -41c-33 39 -53 59 -93 73l-36 -246c104 -58 164 -111 164 -208c0 -106 -83 -200 -224 -210l-22 -152h-65l23 156c-87 17 -149 62 -186 146l63 32c30 -62 67 -95 133 -112l44 304c-86 47 -148 101 -148 185 c0 94 88 174 200 178l8 54h64zM259 430l32 222c-80 -12 -122 -58 -122 -111c0 -57 42 -87 90 -111zM308 324l-39 -276c102 15 146 75 146 138c0 67 -48 101 -107 138z"></glyph><glyph glyph-name="percent" unicode="%" d="M431 713c80 0 163 12 246 37h51l-638 -800h-57l587 738c-54 -13 -123 -23 -189 -23c-19 0 -43 3 -62 4c12 -20 24 -42 24 -81c0 -104 -78 -192 -192 -192c-92 0 -150 64 -150 148c0 106 93 192 188 192c44 0 101 -23 192 -23zM240 684c-75 0 -130 -68 -130 -135 c0 -56 38 -101 97 -101c73 0 127 64 127 138c0 54 -37 98 -94 98zM579 322c80 0 152 -60 152 -149c0 -104 -79 -191 -192 -191c-93 0 -151 65 -151 148c0 104 89 192 191 192zM577 270c-75 0 -130 -68 -130 -135c0 -56 38 -101 97 -101c73 0 128 63 128 137 c0 54 -38 99 -95 99z"></glyph><glyph glyph-name="ampersand" unicode="&amp;" d="M508 97c-101 -76 -194 -114 -273 -114c-116 0 -179 80 -179 166c0 106 87 166 210 248c-41 59 -62 110 -62 153c0 86 77 141 168 141c84 0 144 -53 144 -119c0 -74 -56 -130 -147 -194c75 -99 130 -157 151 -184c8 6 43 31 100 75l45 -55c-30 -25 -63 -51 -97 -75 c24 -30 69 -81 127 -139h-98c-29 32 -62 63 -89 97zM308 339c-123 -74 -179 -125 -179 -190c0 -59 49 -99 104 -99c60 0 135 41 229 101c-19 19 -73 83 -154 188zM328 435c67 48 115 86 115 132c0 29 -30 57 -78 57c-55 0 -88 -34 -88 -72c0 -31 20 -69 51 -117z"></glyph><glyph glyph-name="quoteright" unicode="’" d="M252 736l-6 -60c-7 -71 -18 -133 -71 -209l-35 22c16 27 38 58 50 112h-43l19 135h86z"></glyph><glyph glyph-name="parenleft" unicode="(" d="M191 -208h-76c-18 65 -29 154 -29 247c0 249 66 507 184 711h79c-115 -183 -190 -432 -190 -700c0 -86 8 -171 32 -258z"></glyph><glyph glyph-name="parenright" unicode=")" d="M125 750h75c21 -76 29 -160 29 -250c0 -252 -67 -505 -184 -708h-79c115 182 190 437 190 697c0 96 -9 183 -31 261z"></glyph><glyph glyph-name="asterisk" unicode="*" d="M211 591l-16 145h64l-14 -145l120 86l32 -54l-135 -61l135 -60l-32 -56l-120 85l14 -145h-64l16 145l-121 -85l-32 56l137 60l-137 61l32 54z"></glyph><glyph glyph-name="plus" unicode="+" d="M56 394h214v211h67v-211h213v-69h-213v-211h-67v211h-214v69z"></glyph><glyph glyph-name="comma" unicode="," d="M-18 -63l109 195l62 -31l-125 -184z"></glyph><glyph glyph-name="hyphen" unicode="-" d="M2 240l8 60h269l-8 -60h-269z"></glyph><glyph glyph-name="period" unicode="." d="M90 105c33 0 59 -26 59 -59s-25 -60 -59 -60s-60 28 -60 60c0 33 27 59 60 59z"></glyph><glyph glyph-name="slash" unicode="/" d="M333 736h75l-298 -834h-75z"></glyph><glyph glyph-name="zero" unicode="0" d="M309 736c111 0 193 -100 193 -271c0 -80 -6 -125 -26 -202c-46 -183 -146 -280 -264 -280c-113 0 -190 95 -190 269c0 299 126 484 287 484zM302 669c-104 0 -207 -151 -207 -424c0 -130 50 -195 120 -195c46 0 100 34 138 93c36 56 76 184 76 332 c0 126 -52 194 -127 194z"></glyph><glyph glyph-name="one" unicode="1" d="M194 649l26 69h150l-95 -718h-71l87 649h-97z"></glyph><glyph glyph-name="two" unicode="2" d="M-20 0l237 263c119 132 189 206 189 288c0 65 -53 118 -128 118c-82 0 -139 -61 -144 -168h-73c8 151 96 235 225 235c111 0 193 -80 193 -187c0 -105 -69 -177 -174 -293l-168 -187h308l-8 -69h-457z"></glyph><glyph glyph-name="three" unicode="3" d="M238 422c98 0 173 54 173 131c0 67 -55 113 -120 113c-61 0 -112 -39 -123 -102h-72c15 107 101 172 200 172c106 0 188 -75 188 -187c0 -79 -40 -123 -118 -161c66 -38 102 -97 102 -168c0 -135 -111 -237 -247 -237c-112 0 -200 73 -216 207h72c4 -27 10 -55 27 -80 c24 -35 71 -60 119 -60c86 0 172 81 172 166s-61 143 -182 143l7 64c7 0 11 -1 18 -1z"></glyph><glyph glyph-name="four" unicode="4" d="M422 736h14l-68 -514h101l-9 -69h-101l-20 -153h-69l20 153h-315zM299 222l47 322l-239 -322h192z"></glyph><glyph glyph-name="five" unicode="5" d="M123 387l99 331h291l-9 -69h-231l-51 -175c14 1 23 2 38 2c112 0 204 -99 204 -231c0 -141 -100 -262 -248 -262c-102 0 -173 51 -221 156l66 29c33 -78 93 -118 157 -118c88 0 173 77 173 194c0 96 -60 169 -155 169c-41 0 -77 -12 -113 -26z"></glyph><glyph glyph-name="six" unicode="6" d="M157 510l192 226l51 -42l-193 -229c14 5 34 10 61 10c115 0 221 -96 221 -238c0 -140 -102 -255 -246 -255c-135 0 -234 102 -234 237c0 105 55 181 148 291zM253 412c-98 0 -171 -85 -171 -189c0 -102 74 -171 158 -171c92 0 176 77 176 186c0 98 -71 174 -163 174z"></glyph><glyph glyph-name="seven" unicode="7" d="M76 649l11 69h454l-465 -736l-57 36l400 631h-343z"></glyph><glyph glyph-name="eight" unicode="8" d="M3 181c0 93 54 167 161 216c-55 37 -83 78 -83 137c0 107 103 202 224 202c110 0 186 -81 186 -174c0 -71 -42 -132 -126 -174c74 -39 111 -95 111 -170c0 -130 -106 -236 -255 -236c-129 0 -218 91 -218 199zM303 666c-85 0 -149 -63 -149 -132c0 -64 51 -108 121 -108 c81 0 143 64 143 133c0 60 -49 107 -115 107zM265 356c-103 0 -189 -74 -189 -174c0 -81 64 -133 148 -133c106 0 184 76 184 165c0 74 -57 142 -143 142z"></glyph><glyph glyph-name="nine" unicode="9" d="M363 208l-192 -226l-51 42l193 229c-15 -5 -34 -10 -61 -10c-115 0 -221 96 -221 238c0 140 101 255 246 255c135 0 234 -101 234 -236c0 -105 -55 -183 -148 -292zM267 306c98 0 171 85 171 189c0 101 -73 171 -158 171c-92 0 -176 -76 -176 -186 c0 -98 71 -174 163 -174z"></glyph><glyph glyph-name="colon" unicode=":" d="M90 105c33 0 59 -26 59 -59s-25 -60 -59 -60s-60 28 -60 60c0 33 27 59 60 59zM150 545c33 0 59 -27 59 -60s-26 -59 -59 -59s-60 26 -60 59s27 60 60 60z"></glyph><glyph glyph-name="semicolon" unicode=";" d="M-18 -63l109 195l62 -31l-125 -184zM149 545c33 0 60 -27 60 -60s-27 -59 -60 -59s-59 26 -59 59s26 60 59 60z"></glyph><glyph glyph-name="less" unicode="&lt;" d="M146 358l409 -188v-72l-504 229v64l504 230v-72z"></glyph><glyph glyph-name="equal" unicode="=" d="M56 501h494v-69h-494v69zM56 286h494v-69h-494v69z"></glyph><glyph glyph-name="greater" unicode="&gt;" d="M51 98v72l410 188l-410 191v72l504 -230v-64z"></glyph><glyph glyph-name="question" unicode="?" d="M246 105c33 0 60 -26 60 -59s-26 -60 -60 -60s-59 27 -59 60s26 59 59 59zM395 341h67c-9 -110 -79 -171 -188 -171c-95 0 -156 59 -156 131c0 71 50 114 137 148c131 52 199 63 199 144c0 58 -47 91 -125 91c-93 0 -145 -49 -157 -147h-66c15 140 103 214 230 214 c105 0 186 -61 186 -155c0 -75 -47 -135 -124 -162c-127 -45 -212 -71 -212 -138c0 -35 37 -63 89 -63c67 0 107 36 120 108z"></glyph><glyph glyph-name="at" unicode="@" d="M431 560c65 0 98 -25 128 -72l13 67h52l-56 -319c-1 -4 -3 -15 -3 -20c0 -16 11 -24 26 -24c48 0 171 82 171 235c0 161 -136 282 -316 282c-200 0 -341 -152 -341 -336c0 -195 148 -343 349 -343c111 0 179 45 251 117h52c-79 -99 -160 -160 -302 -160 c-219 0 -388 166 -388 377c0 220 165 388 382 388c192 0 351 -141 351 -314c0 -84 -27 -153 -82 -207c-53 -52 -128 -82 -170 -82c-39 0 -56 18 -57 54c-22 -28 -62 -49 -106 -49c-92 0 -161 69 -161 177c0 121 83 229 207 229zM409 209c76 0 127 82 127 188 c0 60 -35 111 -98 111c-85 0 -146 -80 -146 -168c0 -79 48 -131 117 -131z"></glyph><glyph glyph-name="A" unicode="A" d="M399 718h17l241 -718h-74l-78 235h-304l-135 -235h-80zM482 304l-89 264l-153 -264h242z"></glyph><glyph glyph-name="B" unicode="B" d="M248 0h-224l96 718h112c94 0 162 -2 217 -48c36 -30 54 -70 54 -120c0 -78 -45 -142 -116 -169c83 -26 136 -89 136 -178c0 -61 -21 -113 -60 -148c-53 -48 -121 -55 -215 -55zM182 650l-32 -239c15 -1 32 -1 46 -1c75 0 133 3 175 30c37 24 59 65 59 108 c0 87 -69 103 -196 103c-16 0 -36 0 -52 -1zM105 69h118c147 0 227 26 227 134c0 101 -82 140 -250 140c-18 0 -41 -2 -59 -2z"></glyph><glyph glyph-name="B" unicode="" d="M248 0h-224l96 718h112c94 0 162 -2 217 -48c36 -30 54 -70 54 -120c0 -78 -45 -142 -116 -169c83 -26 136 -89 136 -178c0 -61 -21 -113 -60 -148c-53 -48 -121 -55 -215 -55zM182 650l-32 -239c15 -1 32 -1 46 -1c75 0 133 3 175 30c37 24 59 65 59 108 c0 87 -69 103 -196 103c-16 0 -36 0 -52 -1zM105 69h118c147 0 227 26 227 134c0 101 -82 140 -250 140c-18 0 -41 -2 -59 -2z"></glyph><glyph glyph-name="C" unicode="C" d="M655 134l41 -57c-88 -58 -161 -94 -290 -94c-229 0 -367 146 -367 341c0 231 188 412 434 412c119 0 205 -37 297 -117l-44 -60c-75 71 -164 107 -260 107c-194 0 -354 -151 -354 -340c0 -167 119 -276 295 -276c87 0 172 28 248 84z"></glyph><glyph glyph-name="D" unicode="D" d="M23 0l95 718h171c77 0 144 -8 208 -39c110 -53 175 -167 175 -300c0 -120 -54 -237 -134 -302c-76 -63 -164 -77 -272 -77h-243zM268 649h-88l-77 -580h81c112 0 197 1 266 36c88 45 149 149 149 272c0 105 -48 192 -134 237c-63 33 -126 35 -197 35z"></glyph><glyph glyph-name="E" unicode="E" d="M120 718h396l-10 -69h-323l-32 -236h323l-9 -69h-323l-37 -275h323l-8 -69h-396z"></glyph><glyph glyph-name="E" unicode="" d="M120 718h396l-10 -69h-323l-32 -236h323l-9 -69h-323l-37 -275h323l-8 -69h-396z"></glyph><glyph glyph-name="F" unicode="F" d="M120 718h346l-8 -69h-276l-32 -236h276l-9 -69h-276l-47 -344h-71z"></glyph><glyph glyph-name="G" unicode="G" d="M447 351h350c-15 -220 -170 -368 -387 -368c-225 0 -371 153 -371 351c0 223 181 402 408 402c131 0 244 -57 333 -172l-58 -43c-74 97 -175 148 -277 148c-174 0 -333 -148 -333 -333c0 -160 128 -286 290 -286c142 0 269 81 308 232h-263v69z"></glyph><glyph glyph-name="H" unicode="H" d="M23 0l96 718h71l-39 -291h368l39 291h70l-94 -718h-70l47 358h-370l-46 -358h-72z"></glyph><glyph glyph-name="I" unicode="I" d="M19 0l97 718h72l-96 -718h-73z"></glyph><glyph glyph-name="J" unicode="J" d="M267 218l65 500h71l-65 -495c-11 -84 -21 -147 -55 -188c-28 -34 -72 -53 -122 -53c-65 0 -120 29 -173 86l55 40c38 -37 76 -59 119 -59c72 0 92 67 105 169z"></glyph><glyph glyph-name="K" unicode="K" d="M23 0l96 718h71l-39 -291l336 291h104l-390 -336l337 -382h-92l-305 347l-47 -347h-71z"></glyph><glyph glyph-name="L" unicode="L" d="M27 0l95 718h72l-86 -649h310l-8 -69h-383z"></glyph><glyph glyph-name="M" unicode="M" d="M791 718h11v-718h-67v495l-312 -495h-18l-186 513l-147 -513h-73l207 718h12l210 -583z"></glyph><glyph glyph-name="N" unicode="N" d="M542 161l75 557h71l-98 -718h-15l-404 557l-76 -557h-71l97 718h16z"></glyph><glyph glyph-name="O" unicode="O" d="M466 736c186 0 339 -133 339 -336c0 -234 -181 -418 -428 -418c-212 0 -343 139 -343 336c0 236 181 418 432 418zM465 669c-216 0 -358 -162 -358 -349c0 -159 102 -271 269 -271c202 0 356 156 356 355c0 160 -118 265 -267 265z"></glyph><glyph glyph-name="P" unicode="P" d="M32 0l96 718h216c66 0 116 -8 157 -42c36 -30 56 -74 56 -127c0 -70 -35 -135 -89 -171c-51 -33 -113 -37 -191 -37h-127l-46 -341h-72zM341 649h-149l-33 -239h124c62 0 112 4 148 30c33 24 53 66 53 108c0 75 -49 101 -143 101z"></glyph><glyph glyph-name="Q" unicode="Q" d="M714 -29l-83 88c-74 -53 -157 -77 -253 -77c-212 0 -343 139 -343 336c0 236 181 418 432 418c186 0 339 -133 339 -336c0 -116 -43 -218 -124 -298l124 -131h-92zM554 239l79 -85c63 65 100 156 100 250c0 160 -118 265 -267 265c-216 0 -358 -162 -358 -349 c0 -159 102 -271 269 -271c73 0 145 22 205 62l-121 128h93z"></glyph><glyph glyph-name="R" unicode="R" d="M38 0l98 718h197c58 0 105 -4 148 -35c42 -30 66 -78 66 -135c0 -59 -27 -119 -70 -155c-45 -38 -105 -53 -183 -53l217 -340h-81l-216 341h-57l-47 -341h-72zM338 649h-139l-33 -239h83c25 0 57 2 89 3c78 3 136 59 136 135c0 71 -45 101 -136 101z"></glyph><glyph glyph-name="S" unicode="S" d="M7 155l67 22c21 -88 71 -127 131 -127c67 0 129 55 129 134c0 85 -53 125 -164 233c-35 34 -61 95 -61 150c0 103 78 169 168 169c79 0 145 -49 175 -150l-67 -18c-18 60 -63 101 -113 101c-55 0 -90 -44 -90 -102c0 -39 21 -86 51 -114c114 -104 174 -172 174 -266 c0 -108 -92 -204 -208 -204c-93 0 -163 60 -192 172z"></glyph><glyph glyph-name="S" unicode="" d="M7 155l67 22c21 -88 71 -127 131 -127c67 0 129 55 129 134c0 85 -53 125 -164 233c-35 34 -61 95 -61 150c0 103 78 169 168 169c79 0 145 -49 175 -150l-67 -18c-18 60 -63 101 -113 101c-55 0 -90 -44 -90 -102c0 -39 21 -86 51 -114c114 -104 174 -172 174 -266 c0 -108 -92 -204 -208 -204c-93 0 -163 60 -192 172z"></glyph><glyph glyph-name="T" unicode="T" d="M27 649l9 69h429l-9 -69h-183l-86 -649h-72l86 649h-174z"></glyph><glyph glyph-name="U" unicode="U" d="M61 318l52 400h71l-54 -411c-4 -31 -10 -70 -10 -114c0 -95 53 -143 147 -143c57 0 108 19 141 53c51 51 67 139 83 268l44 347h71l-48 -362c-7 -50 -11 -113 -32 -181c-40 -131 -120 -192 -258 -192c-140 0 -221 75 -221 198c0 49 9 96 14 137z"></glyph><glyph glyph-name="V" unicode="V" d="M286 0l-226 718h72l179 -569l333 569h79l-420 -718h-17z"></glyph><glyph glyph-name="W" unicode="W" d="M195 0l-134 718h70l99 -533l278 533h14l126 -533l253 533h76l-343 -718h-13l-127 541l-285 -541h-14z"></glyph><glyph glyph-name="X" unicode="X" d="M263 377l-156 341h76l127 -279l211 279h84l-263 -348l169 -370h-75l-141 306l-232 -306h-85z"></glyph><glyph glyph-name="Y" unicode="Y" d="M228 322l-187 396h75l154 -326l259 326h87l-318 -400l-44 -318h-70z"></glyph><glyph glyph-name="Z" unicode="Z" d="M97 649l10 69h369l-353 -649h269l-9 -69h-376l354 649h-264z"></glyph><glyph glyph-name="bracketleft" unicode="[" d="M50 -194l131 930h164l-10 -69h-95l-112 -795h95l-9 -66h-164z"></glyph><glyph glyph-name="backslash" unicode="\" d="M32 736h75l465 -834h-74z"></glyph><glyph glyph-name="bracketright" unicode="]" d="M248 736l-131 -930h-164l10 69h95l112 795h-96l10 66h164z"></glyph><glyph glyph-name="asciicircum" unicode="^" d="M59 178l249 540h57l249 -540h-64l-215 465l-213 -465h-63z"></glyph><glyph glyph-name="underscore" unicode="_" d="M-6 -124v48h512v-48h-512z"></glyph><glyph glyph-name="quoteleft" unicode="‘" d="M140 467l6 60c7 70 17 132 71 209l35 -21c-17 -28 -39 -59 -50 -113h43l-19 -135h-86z"></glyph><glyph glyph-name="a" unicode="a" d="M535 430l12 101h71l-71 -531h-69l10 80c-61 -62 -131 -94 -211 -94c-145 0 -248 103 -248 250c0 176 146 309 304 309c93 0 156 -39 202 -115zM285 49c140 0 237 108 237 246c0 114 -80 187 -188 187c-128 0 -237 -104 -237 -245c0 -116 79 -188 188 -188z"></glyph><glyph glyph-name="b" unicode="b" d="M112 101l-12 -101h-71l98 736h69l-37 -284c61 62 131 93 211 93c144 0 248 -101 248 -249c0 -176 -144 -309 -303 -309c-93 0 -157 38 -203 114zM363 482c-139 0 -238 -107 -238 -246c0 -114 80 -186 188 -186c127 0 237 102 237 244c0 116 -78 188 -187 188z"></glyph><glyph glyph-name="b" unicode="" d="M112 101l-12 -101h-71l98 736h69l-37 -284c61 62 131 93 211 93c144 0 248 -101 248 -249c0 -176 -144 -309 -303 -309c-93 0 -157 38 -203 114zM363 482c-139 0 -238 -107 -238 -246c0 -114 80 -186 188 -186c127 0 237 102 237 244c0 116 -78 188 -187 188z"></glyph><glyph glyph-name="c" unicode="c" d="M498 137l56 -40c-69 -76 -150 -111 -258 -111c-170 0 -267 103 -267 252c0 172 141 307 320 307c106 0 192 -47 236 -128l-57 -33c-39 62 -101 94 -180 94c-148 0 -251 -105 -251 -236c0 -114 74 -193 196 -193c81 0 162 36 205 88z"></glyph><glyph glyph-name="d" unicode="d" d="M479 0l10 80c-61 -62 -131 -94 -211 -94c-145 0 -248 103 -248 250c0 176 146 309 304 309c93 0 156 -39 202 -115l40 306h70l-98 -736h-69zM286 49c140 0 237 108 237 246c0 114 -80 187 -188 187c-128 0 -237 -104 -237 -245c0 -116 79 -188 188 -188z"></glyph><glyph glyph-name="e" unicode="e" d="M464 136l51 -41c-52 -65 -137 -109 -236 -109c-160 0 -250 115 -250 252c0 162 133 308 309 308c142 0 236 -109 236 -246c0 -14 -2 -34 -4 -48h-473v-14c0 -110 72 -189 184 -189c74 0 141 31 183 87zM108 312h400c-4 102 -77 167 -174 167c-102 0 -191 -59 -226 -167z "></glyph><glyph glyph-name="f" unicode="f" d="M114 531l6 47c11 87 32 173 123 173c35 0 60 -16 83 -33l-9 -64c-23 21 -46 34 -66 34c-42 0 -53 -45 -61 -100l-8 -57h109l-7 -60h-109l-66 -471h-70l67 471h-67l8 60h67z"></glyph><glyph glyph-name="g" unicode="g" d="M531 430l13 101h67l-61 -449c-12 -89 -23 -159 -84 -217c-47 -45 -123 -73 -206 -73c-118 0 -204 48 -249 143l61 21c36 -66 102 -101 187 -101c111 0 193 61 206 131c6 30 12 61 16 87l3 21c-58 -63 -128 -94 -211 -94c-152 0 -244 105 -244 242c0 170 150 303 299 303 c88 0 153 -39 203 -115zM341 482c-135 0 -244 -102 -244 -243c0 -107 73 -176 183 -176c134 0 236 99 236 235c0 115 -83 184 -175 184z"></glyph><glyph glyph-name="h" unicode="h" d="M19 0l101 736h68l-39 -285c54 62 116 95 188 95c100 0 182 -67 182 -184c0 -47 -7 -86 -11 -118l-33 -244h-67l33 244c6 42 10 82 10 115c0 76 -49 124 -123 124c-66 0 -129 -34 -163 -90c-24 -39 -37 -95 -46 -163l-32 -230h-68z"></glyph><glyph glyph-name="i" unicode="i" d="M134 750c30 0 55 -25 55 -55c0 -31 -25 -55 -55 -55s-55 25 -55 55s24 55 55 55zM7 0l73 531h65l-71 -531h-67z"></glyph><glyph glyph-name="j" unicode="j" d="M2 -55l81 586h67l-78 -565c-15 -109 -39 -175 -110 -175c-20 0 -41 8 -58 15l8 58c8 -5 20 -10 35 -10c31 0 46 28 55 91zM137 750c30 0 55 -25 55 -55c0 -31 -25 -55 -55 -55s-55 25 -55 55s24 55 55 55z"></glyph><glyph glyph-name="k" unicode="k" d="M19 0l104 736h67l-57 -401l256 196h106l-308 -237l272 -294h-91l-245 264l-36 -264h-68z"></glyph><glyph glyph-name="l" unicode="l" d="M7 0l103 736h67l-102 -736h-68z"></glyph><glyph glyph-name="m" unicode="m" d="M159 531l-10 -75c44 59 114 89 175 89c73 0 134 -39 159 -119c48 76 123 119 197 119c93 0 170 -63 170 -172c0 -28 -5 -57 -8 -81l-39 -292h-67l36 255c6 45 10 84 10 113c0 65 -40 110 -109 110c-43 0 -80 -13 -113 -43c-51 -46 -68 -103 -79 -180l-36 -255h-68l40 292 c3 23 7 50 7 75c0 72 -47 115 -109 115c-42 0 -85 -18 -117 -46c-46 -41 -66 -102 -78 -186l-35 -250h-68l76 531h66z"></glyph><glyph glyph-name="n" unicode="n" d="M159 531l-10 -81c54 63 116 95 188 95c105 0 182 -69 182 -183c0 -51 -7 -91 -11 -118l-33 -244h-67l33 244c4 33 10 72 10 114c0 75 -47 124 -122 124c-67 0 -129 -33 -164 -88c-25 -39 -36 -95 -46 -164l-32 -230h-67l74 531h65z"></glyph><glyph glyph-name="o" unicode="o" d="M332 545c138 0 245 -103 245 -254c0 -167 -123 -304 -305 -304c-147 0 -245 105 -245 248c0 174 134 310 305 310zM330 482c-131 0 -235 -102 -235 -243c0 -110 74 -189 186 -189c137 0 228 110 228 242c0 114 -77 190 -179 190z"></glyph><glyph glyph-name="p" unicode="p" d="M169 531l-10 -79c61 62 131 93 211 93c144 0 248 -101 248 -249c0 -176 -145 -309 -304 -309c-93 0 -157 38 -202 114l-38 -295h-71l97 725h69zM362 482c-139 0 -237 -107 -237 -246c0 -114 80 -186 188 -186c127 0 237 102 237 244c0 116 -79 188 -188 188z"></glyph><glyph glyph-name="q" unicode="q" d="M535 430l12 101h71l-97 -725h-69l36 274c-61 -62 -131 -94 -211 -94c-145 0 -248 103 -248 250c0 176 146 309 304 309c93 0 156 -39 202 -115zM285 49c140 0 237 108 237 246c0 114 -80 187 -188 187c-128 0 -237 -104 -237 -245c0 -116 79 -188 188 -188z"></glyph><glyph glyph-name="r" unicode="r" d="M133 531l-9 -66c37 51 90 80 145 80c28 0 47 -8 61 -14l-33 -62c-10 4 -25 9 -42 9c-35 0 -71 -18 -98 -50c-40 -48 -54 -115 -66 -203l-31 -225h-67l72 531h68z"></glyph><glyph glyph-name="s" unicode="s" d="M-17 74l41 48c40 -48 84 -72 128 -72c48 0 98 39 98 93c0 29 -15 58 -42 77c-108 77 -165 108 -165 183c0 80 70 142 158 142c66 0 103 -31 138 -73l-37 -56c-29 41 -63 66 -106 66c-50 0 -85 -41 -85 -76c0 -24 17 -50 46 -69c96 -63 161 -102 161 -196 c0 -92 -73 -154 -169 -154c-64 0 -122 31 -166 87z"></glyph><glyph glyph-name="s" unicode="" d="M-17 74l41 48c40 -48 84 -72 128 -72c48 0 98 39 98 93c0 29 -15 58 -42 77c-108 77 -165 108 -165 183c0 80 70 142 158 142c66 0 103 -31 138 -73l-37 -56c-29 41 -63 66 -106 66c-50 0 -85 -41 -85 -76c0 -24 17 -50 46 -69c96 -63 161 -102 161 -196 c0 -92 -73 -154 -169 -154c-64 0 -122 31 -166 87z"></glyph><glyph glyph-name="t" unicode="t" d="M149 531l28 199h67l-26 -199h105l-7 -60h-106l-64 -471h-69l65 471h-92l8 60h91z"></glyph><glyph glyph-name="u" unicode="u" d="M65 329l27 202h68l-30 -222c-6 -45 -13 -86 -13 -121c0 -84 63 -138 148 -138c53 0 103 24 132 62c33 43 37 96 45 154l38 265h66l-27 -201c-16 -118 -31 -203 -67 -254c-40 -55 -110 -89 -190 -89c-124 0 -210 83 -210 198c0 22 4 75 13 144z"></glyph><glyph glyph-name="v" unicode="v" d="M210 0l-183 531h70l134 -389l224 389h74l-306 -531h-13z"></glyph><glyph glyph-name="w" unicode="w" d="M189 0l-155 531h68l109 -375l200 375h12l121 -378l195 378h74l-275 -531h-14l-123 375l-199 -375h-13z"></glyph><glyph glyph-name="w" unicode="" d="M189 0l-155 531h68l109 -375l200 375h12l121 -378l195 378h74l-275 -531h-14l-123 375l-199 -375h-13z"></glyph><glyph glyph-name="x" unicode="x" d="M181 264l-164 267h77l130 -207l152 207h82l-197 -267l161 -264h-78l-126 204l-150 -204h-82z"></glyph><glyph glyph-name="y" unicode="y" d="M187 65l-164 466h71l137 -392l228 392h75l-420 -725h-77z"></glyph><glyph glyph-name="y" unicode="" d="M187 65l-164 466h71l137 -392l228 392h75l-420 -725h-77z"></glyph><glyph glyph-name="z" unicode="z" d="M37 471l8 60h365l-317 -471h288l-8 -60h-401l319 471h-254z"></glyph><glyph glyph-name="braceleft" unicode="{" d="M103 115c0 62 -28 93 -84 94l11 80c106 3 115 92 137 251c19 137 74 178 179 178h27l-10 -76h-16c-67 0 -86 -16 -98 -101c-23 -162 -28 -241 -143 -292c56 -25 78 -67 78 -136c0 -75 -21 -148 -21 -203c0 -46 26 -54 74 -54h15l-11 -76h-27c-86 0 -133 27 -133 117 c0 70 22 148 22 218z"></glyph><glyph glyph-name="bar" unicode="|" d="M301 -194v930h70v-930h-70z"></glyph><glyph glyph-name="braceright" unicode="}" d="M189 383c0 -62 27 -93 83 -94l-11 -80c-106 -3 -115 -94 -137 -252c-19 -137 -75 -177 -179 -177h-27l11 76h15c68 0 86 16 98 101c23 163 29 241 143 292c-56 25 -78 67 -78 136c0 75 21 148 21 203c0 46 -26 54 -74 54h-15l11 76h27c86 0 134 -27 134 -117 c0 -70 -22 -148 -22 -218z"></glyph><glyph glyph-name="asciitilde" unicode="~" d="M55 310v78c44 25 82 47 124 47c89 0 180 -81 248 -81c40 0 77 26 124 55v-79c-46 -26 -84 -46 -123 -46c-88 0 -181 77 -245 77c-38 0 -79 -22 -128 -51z"></glyph><glyph glyph-name="exclamdown" unicode="¡" d="M171 349l-75 -557h-67l74 557h68zM151 423c-33 0 -60 27 -60 60c0 32 27 59 60 59s59 -26 59 -59s-26 -60 -59 -60z"></glyph><glyph glyph-name="cent" unicode="¢" d="M414 529l86 131l50 -33l-82 -127c15 -10 28 -20 45 -36l-42 -54c-13 12 -28 24 -40 33l-244 -375c18 -7 41 -15 79 -15c66 0 123 22 175 68l38 -53c-61 -53 -136 -82 -219 -82c-53 0 -83 12 -110 25l-97 -150l-53 34l100 151c-53 56 -77 111 -77 185 c0 174 145 314 300 314c31 0 62 -6 91 -16zM137 104l239 367c-12 4 -30 11 -51 11c-123 0 -234 -113 -234 -248c0 -51 14 -94 46 -130z"></glyph><glyph glyph-name="sterling" unicode="£" d="M260 413h156l-10 -69h-138c1 -17 2 -37 2 -53c0 -58 -7 -111 -27 -165c55 -41 88 -70 119 -70c34 0 61 45 70 112h71c-7 -85 -55 -186 -143 -186c-47 0 -92 26 -150 78c-36 -51 -75 -78 -124 -78c-54 0 -93 38 -93 93c0 59 49 113 113 113c29 0 54 -8 76 -20 c8 27 15 59 15 108c0 22 -1 46 -3 68h-141l10 69h123c-8 49 -15 91 -15 127c0 129 89 196 194 196c97 0 159 -63 159 -172v-15h-70c-3 74 -23 120 -93 120c-65 0 -117 -48 -117 -121c0 -30 5 -76 16 -135zM155 103c-13 9 -30 18 -49 18c-26 0 -45 -16 -45 -39 c0 -19 12 -33 30 -33c24 0 45 21 64 54z"></glyph><glyph glyph-name="fraction" unicode="⁄" d="M-138 -18h-54l455 754h55z"></glyph><glyph glyph-name="yen" unicode="¥" d="M48 344h179l-156 374h75l123 -294l201 294h82l-252 -374h179l-9 -56h-179l-10 -75h179l-9 -56h-179l-21 -157h-71l23 157h-180l7 56h180l10 75h-179z"></glyph><glyph glyph-name="florin" unicode="ƒ" d="M312 574l-20 -143h112l-8 -60h-113l-53 -347c-23 -152 -70 -232 -156 -232c-30 0 -51 12 -70 24l9 60c14 -11 29 -21 54 -21c55 0 83 57 101 180l49 336h-69l8 60h69l24 156c9 56 14 100 46 133c18 19 42 31 67 31c31 0 58 -14 86 -33l-9 -65c-23 22 -47 35 -67 35 c-42 0 -51 -49 -60 -114z"></glyph><glyph glyph-name="section" unicode="§" d="M32 -68h69c16 -50 49 -76 111 -76c71 0 126 45 126 104c0 37 -28 75 -80 111c-128 88 -187 131 -187 216c0 72 55 135 151 158c-48 37 -73 78 -73 132c0 92 78 172 192 172c96 0 166 -59 170 -165h-68c-8 65 -41 98 -101 98c-75 0 -125 -52 -125 -103 c0 -36 33 -76 72 -101c114 -74 196 -124 196 -207c0 -69 -57 -140 -165 -161c50 -40 91 -82 91 -149c0 -90 -82 -168 -202 -168c-98 0 -160 45 -177 139zM270 410c-81 -12 -131 -60 -131 -115c0 -62 58 -94 131 -146c89 8 147 65 147 116c0 59 -64 85 -147 145z"></glyph><glyph glyph-name="currency" unicode="¤" d="M527 174c-13 -13 -24 -25 -36 -37c-23 22 -45 44 -67 66c-32 -25 -73 -40 -117 -40c-34 0 -80 9 -118 40l-66 -66c-13 12 -24 24 -36 37c22 21 45 43 67 64c-23 32 -39 72 -39 116s14 86 39 116c-22 22 -45 43 -67 65c12 13 23 25 36 37l66 -66c41 30 84 40 118 40 c37 0 84 -13 116 -40c22 22 45 44 68 66c12 -12 23 -24 36 -37c-23 -22 -46 -43 -68 -65c28 -35 40 -77 40 -116c0 -43 -15 -82 -40 -116c22 -21 45 -43 68 -64zM448 355c0 83 -71 140 -140 140c-82 0 -142 -65 -142 -140c0 -76 63 -142 141 -142c77 0 141 65 141 142z"></glyph><glyph glyph-name="quotesingle" unicode="'" d="M161 736l-11 -226h-50l-11 226h72z"></glyph><glyph glyph-name="quotedblleft" unicode="“" d="M309 467l7 60c8 71 17 133 70 209l35 -21c-16 -27 -38 -58 -50 -113h43l-19 -135h-86zM94 467l6 60c7 70 17 132 71 209l35 -21c-17 -28 -39 -59 -50 -113h43l-19 -135h-86z"></glyph><glyph glyph-name="guillemotleft" unicode="«" d="M0 272l143 259h74l-147 -268l69 -263h-66zM225 272l143 259h74l-148 -268l70 -263h-67z"></glyph><glyph glyph-name="guilsinglleft" unicode="‹" d="M16 272l143 259h74l-147 -268l69 -263h-66z"></glyph><glyph glyph-name="guilsinglright" unicode="›" d="M215 259l-143 -259h-74l148 269l-70 262h67z"></glyph><glyph glyph-name="endash" unicode="–" d="M-6 248v63h512v-63h-512z"></glyph><glyph glyph-name="dagger" unicode="†" d="M263 513l18 223h72l-43 -223l178 11l-11 -73l-174 12l-73 -616h-74l100 616l-178 -12l10 73z"></glyph><glyph glyph-name="daggerdbl" unicode="‡" d="M270 563l12 173h72l-36 -173l176 12l-10 -72l-173 12l-20 -223l-42 -221l176 10l-10 -73l-173 14l-13 -175h-72l36 175l-176 -14l10 73l173 -10l19 221l44 223l-176 -12l10 72z"></glyph><glyph glyph-name="periodcentered" unicode="·" d="M124 419c33 0 59 -28 59 -60c0 -33 -26 -59 -59 -59s-60 26 -60 59c0 32 26 60 60 60z"></glyph><glyph glyph-name="paragraph" unicode="¶" d="M294 -113h-58v458c-122 -3 -190 80 -190 195c0 119 68 199 203 199h250v-37h-41v-815h-58v815h-106v-815z"></glyph><glyph glyph-name="bullet" unicode="•" d="M303 514c83 0 150 -67 150 -150c0 -82 -67 -150 -150 -150c-84 0 -150 68 -150 150c0 83 67 150 150 150z"></glyph><glyph glyph-name="quotesinglbase" unicode="‚" d="M189 135l-6 -60c-7 -72 -18 -133 -71 -209l-35 22c16 26 38 57 50 112h-43l19 135h86z"></glyph><glyph glyph-name="quotedblbase" unicode="„" d="M156 135l-6 -60c-7 -72 -18 -133 -71 -209l-35 22c16 26 38 57 50 112h-43l19 135h86zM371 135l-6 -60c-7 -71 -18 -133 -71 -209l-35 22c16 27 39 58 50 112h-43l19 135h86z"></glyph><glyph glyph-name="quotedblright" unicode="”" d="M197 736l-6 -60c-7 -71 -18 -133 -71 -209l-35 22c16 27 38 58 50 112h-43l19 135h86zM412 736l-6 -60c-7 -70 -18 -133 -71 -209l-35 22c17 28 39 59 50 112h-43l19 135h86z"></glyph><glyph glyph-name="guillemotright" unicode="»" d="M403 259l-143 -259h-74l147 269l-69 262h66zM178 259l-143 -259h-74l148 269l-70 262h67z"></glyph><glyph glyph-name="ellipsis" unicode="…" d="M500 105c33 0 60 -26 60 -59s-26 -60 -60 -60s-59 27 -59 60s26 59 59 59zM167 105c33 0 59 -26 59 -59s-25 -60 -59 -60s-60 28 -60 60c0 33 27 59 60 59zM833 105c33 0 60 -26 60 -59s-26 -60 -60 -60s-59 28 -59 60c0 33 26 59 59 59z"></glyph><glyph glyph-name="perthousand" unicode="‰" d="M432 713c80 0 163 12 246 37h51l-638 -800h-57l587 738c-54 -13 -123 -23 -189 -23c-19 0 -43 3 -62 4c12 -20 24 -42 24 -81c0 -104 -78 -192 -192 -192c-92 0 -150 64 -150 148c0 106 93 192 188 192c44 0 101 -23 192 -23zM241 684c-75 0 -130 -68 -130 -135 c0 -56 38 -101 97 -101c73 0 127 64 127 138c0 54 -37 98 -94 98zM580 322c80 0 152 -60 152 -149c0 -104 -79 -191 -192 -191c-93 0 -151 65 -151 148c0 104 89 192 191 192zM578 270c-75 0 -130 -68 -130 -135c0 -56 38 -101 97 -101c73 0 128 63 128 137 c0 54 -38 99 -95 99zM967 322c80 0 151 -60 151 -149c0 -103 -78 -191 -192 -191c-92 0 -150 64 -150 148c0 104 89 192 191 192zM965 270c-75 0 -130 -68 -130 -135c0 -56 38 -101 97 -101c73 0 127 63 127 137c0 54 -37 99 -94 99z"></glyph><glyph glyph-name="questiondown" unicode="¿" d="M316 437c-33 0 -59 26 -59 59s26 60 59 60s60 -27 60 -60s-27 -59 -60 -59zM167 202h-66c9 111 79 171 188 171c95 0 154 -58 154 -131c0 -71 -49 -115 -136 -149c-131 -51 -198 -64 -198 -145c0 -57 46 -89 125 -89c93 0 144 48 156 146h67 c-15 -140 -104 -213 -231 -213c-105 0 -185 61 -185 154c0 75 47 134 124 162c127 46 213 72 213 138c0 36 -39 64 -90 64c-66 0 -108 -36 -121 -108z"></glyph><glyph glyph-name="grave" unicode="`" d="M105 781h105l85 -151h-67z"></glyph><glyph glyph-name="acute" unicode="´" d="M156 630l128 151h105l-166 -151h-67z"></glyph><glyph glyph-name="circumflex" unicode="ˆ" d="M109 628l163 125h68l124 -125h-89l-75 74l-100 -74h-91z"></glyph><glyph glyph-name="tilde" unicode="˜" d="M330 702c28 0 53 13 78 26l27 -47c-37 -24 -70 -42 -116 -42c-63 0 -87 39 -133 39c-31 0 -55 -16 -82 -34l-25 50c34 31 74 47 116 47c57 0 89 -39 135 -39z"></glyph><glyph glyph-name="macron" unicode="¯" d="M114 663l8 60h337l-8 -60h-337z"></glyph><glyph glyph-name="breve" unicode="˘" d="M389 745h62c-22 -58 -87 -103 -185 -103c-95 0 -153 41 -161 103h64c18 -35 53 -51 104 -51c52 0 83 13 116 51z"></glyph><glyph glyph-name="dotaccent" unicode="˙" d="M162 741c30 0 49 -19 49 -57c0 -23 -28 -56 -64 -56c-29 0 -49 18 -49 56c0 23 29 57 64 57z"></glyph><glyph glyph-name="dieresis" unicode="¨" d="M136 741c30 0 49 -19 49 -57c0 -23 -28 -56 -64 -56c-29 0 -49 18 -49 56c0 23 29 57 64 57zM336 741c30 0 48 -19 48 -57c0 -22 -28 -56 -64 -56c-30 0 -49 18 -49 56c0 22 29 57 65 57z"></glyph><glyph glyph-name="ring" unicode="˚" d="M182 815c56 0 101 -44 101 -101c0 -56 -45 -102 -101 -102s-102 46 -102 102s45 101 102 101zM182 773c-34 1 -59 -26 -59 -59c0 -34 28 -59 59 -59c33 0 59 27 59 59c1 33 -27 59 -59 59z"></glyph><glyph glyph-name="cedilla" unicode="¸" d="M60 -99l27 99h43l-17 -58c7 1 12 2 19 2c33 0 49 -17 49 -52c0 -29 -40 -78 -123 -78c-27 0 -54 5 -79 15l15 34c17 -6 39 -10 58 -10c49 0 70 17 70 32s-12 21 -28 21c-11 0 -25 -3 -34 -5z"></glyph><glyph glyph-name="hungarumlaut" unicode="˝" d="M161 630l128 151h105l-166 -151h-67zM315 630l128 151h105l-165 -151h-68z"></glyph><glyph glyph-name="ogonek" unicode="˛" d="M230 -145l-11 -42c-14 -3 -29 -4 -42 -4c-69 0 -99 25 -99 87c0 28 28 76 73 104h53c-46 -35 -71 -68 -71 -93c0 -38 17 -55 62 -55c10 0 26 2 35 3z"></glyph><glyph glyph-name="caron" unicode="ˇ" d="M482 753l-163 -125h-68l-124 125h88l76 -74l100 74h91z"></glyph><glyph glyph-name="emdash" unicode="—" d="M-6 248v63h1012v-63h-1012z"></glyph><glyph glyph-name="AE" unicode="Æ" d="M859 69l-8 -69h-406l32 234h-247l-168 -234h-78l517 718h437l-10 -69h-323l-32 -236h323l-9 -69h-323l-37 -275h332zM486 303l47 353l-253 -353h206z"></glyph><glyph glyph-name="ordfeminine" unicode="ª" d="M355 728l-48 -332h-57l6 38c-26 -25 -53 -46 -97 -46c-71 0 -124 62 -124 156c0 112 74 192 151 192c45 0 71 -24 104 -59l7 51h58zM173 440c61 0 107 58 107 140c0 65 -37 104 -84 104c-55 0 -106 -56 -106 -139c0 -66 35 -105 83 -105z"></glyph><glyph glyph-name="Lslash" unicode="Ł" d="M220 718l-41 -311l138 69l-11 -78l-137 -69l-35 -260h310l-8 -69h-383l39 291l-88 -44l11 78l87 44l46 349h72z"></glyph><glyph glyph-name="Oslash" unicode="Ø" d="M772 703l-59 -68c62 -63 92 -139 92 -235c0 -234 -181 -418 -428 -418c-74 0 -138 15 -194 49l-64 -74l-48 43l62 71c-63 61 -99 147 -99 247c0 236 181 418 432 418c72 0 139 -19 197 -58l59 67zM667 583l-436 -498c43 -24 92 -36 145 -36c202 0 356 156 356 355 c0 71 -21 130 -65 179zM179 124l439 501c-41 27 -98 44 -153 44c-216 0 -358 -162 -358 -349c0 -77 26 -147 72 -196z"></glyph><glyph glyph-name="OE" unicode="Œ" d="M681 0l16 117c-85 -88 -185 -135 -319 -135c-213 0 -340 145 -340 339c0 233 184 415 419 415c138 0 238 -55 301 -166l20 148h394l-8 -69h-325l-32 -236h325l-9 -69h-324l-37 -275h324l-9 -69h-396zM454 669c-152 0 -343 -122 -343 -352c0 -164 116 -272 268 -272 c189 0 355 157 355 353c0 165 -118 271 -280 271z"></glyph><glyph glyph-name="ordmasculine" unicode="º" d="M205 736c78 0 140 -64 140 -159c0 -105 -71 -189 -172 -189c-83 0 -139 66 -139 156c0 109 75 192 171 192zM203 684c-63 0 -114 -56 -114 -138c0 -64 36 -106 89 -106c66 0 112 61 112 138c0 66 -39 106 -87 106z"></glyph><glyph glyph-name="ae" unicode="æ" d="M490 0l10 83c-65 -65 -133 -96 -223 -96c-155 0 -249 111 -249 254c0 167 138 304 305 304c98 0 160 -38 213 -120l15 106h61l-11 -87c59 67 135 101 222 101c140 0 247 -96 247 -246c0 -16 -2 -34 -4 -48h-481c-1 -8 -1 -12 -1 -21c0 -99 74 -180 193 -180 c73 0 134 28 183 84l52 -38c-59 -73 -139 -109 -242 -109c-100 0 -167 34 -216 111l-13 -98h-61zM333 482c-141 0 -237 -113 -237 -244c0 -114 78 -188 193 -188c142 0 241 113 241 237c0 105 -75 195 -197 195zM608 311h408c-3 99 -72 171 -183 171 c-109 0 -193 -65 -225 -171z"></glyph><glyph glyph-name="dotlessi" unicode="ı" d="M7 0l73 531h65l-71 -531h-67z"></glyph><glyph glyph-name="lslash" unicode="ł" d="M227 736l-41 -290l110 62l-11 -78l-109 -62l-52 -368h-67l46 327l-98 -56l11 78l98 56l46 331h67z"></glyph><glyph glyph-name="oslash" unicode="ø" d="M585 527l-63 -72c35 -47 54 -102 54 -164c0 -167 -124 -304 -304 -304c-49 0 -92 10 -129 32l-63 -73l-50 42l62 71c-45 49 -66 106 -66 176c0 177 138 310 301 310c56 0 111 -17 149 -45l59 68zM478 404l-290 -333c29 -15 59 -21 92 -21c137 0 228 110 228 242 c0 41 -9 78 -30 112zM137 111l295 339c-29 19 -68 32 -107 32c-123 0 -231 -100 -231 -243c0 -49 14 -93 43 -128z"></glyph><glyph glyph-name="oe" unicode="œ" d="M819 544c143 0 237 -100 237 -245c0 -14 -2 -33 -4 -47h-472c-1 -11 -1 -16 -1 -27c0 -97 71 -175 185 -175c75 0 134 28 183 86l51 -41c-56 -71 -138 -108 -236 -108c-108 0 -179 44 -227 137c-62 -88 -137 -137 -258 -137c-157 0 -245 109 -245 248 c0 165 127 309 299 309c105 0 190 -51 228 -143c66 96 156 143 260 143zM591 312h400c-1 91 -69 169 -171 169c-111 0 -206 -74 -229 -169zM334 481c-130 0 -234 -99 -234 -245c0 -122 78 -186 185 -186c128 0 231 103 231 242c0 117 -78 189 -182 189z"></glyph><glyph glyph-name="germandbls" unicode="ß" d="M426 589c0 52 -39 94 -101 94c-45 0 -88 -21 -117 -55c-34 -41 -41 -88 -49 -143l-68 -485h-69l69 485c12 85 28 150 79 201c40 40 97 64 157 64c96 0 164 -67 164 -157c0 -91 -47 -158 -139 -190c81 -38 122 -100 122 -178c0 -131 -91 -239 -224 -239 c-38 0 -75 8 -103 26l9 67c29 -15 58 -26 91 -26c80 0 159 67 159 164c0 86 -56 136 -168 154l10 74c117 3 178 65 178 144z"></glyph><glyph glyph-name="logicalnot" unicode="¬" d="M56 501h494v-283h-67v214h-427v69z"></glyph><glyph glyph-name="mu" unicode="µ" d="M394 0l8 58c-44 -46 -94 -70 -157 -70c-62 0 -107 22 -139 68l-34 -250h-68l100 725h68l-39 -280c-3 -21 -6 -46 -6 -61c0 -83 58 -128 130 -128c69 0 133 47 156 114c8 23 12 53 16 83l38 272h69l-73 -531h-69z"></glyph><glyph glyph-name="trademark" unicode="™" d="M844 740h116v-422h-73v347l-157 -347h-48l-152 347v-347h-73v422h119l130 -293zM6 740h370v-69h-149v-353h-73v353h-148v69z"></glyph><glyph glyph-name="Eth" unicode="Ð" d="M68 0l44 327h-91l9 64h90l44 327h170c117 0 205 -21 274 -82c68 -59 107 -153 107 -257c0 -120 -52 -237 -132 -302c-75 -61 -159 -77 -272 -77h-243zM358 327h-175l-34 -258h80c111 0 199 1 266 36c89 46 152 152 152 272c0 135 -80 234 -208 262c-48 11 -77 10 -126 10 h-87l-35 -258h175z"></glyph><glyph glyph-name="onehalf" unicode="½" d="M88 679l21 48h100l-59 -369h-53l51 321h-60zM147 -18h-54l455 754h55zM433 0l152 142c70 65 111 101 111 138c0 28 -29 51 -70 51c-48 0 -78 -28 -80 -83h-55c5 86 59 131 140 131c70 0 120 -43 120 -100c0 -54 -42 -90 -105 -150l-86 -81h172l-7 -48h-292z"></glyph><glyph glyph-name="plusminus" unicode="±" d="M56 80h494v-69h-494v69zM56 447h214v211h67v-211h213v-69h-213v-211h-67v211h-214v69z"></glyph><glyph glyph-name="Thorn" unicode="Þ" d="M32 0l96 718h72l-23 -170h124c42 0 79 -1 106 -7c79 -19 127 -80 127 -162c0 -70 -35 -135 -89 -171c-51 -33 -113 -37 -191 -37h-127l-23 -171h-72zM317 479h-148l-33 -239h124c62 0 112 5 148 31c33 24 53 65 53 107c0 75 -50 101 -144 101z"></glyph><glyph glyph-name="onequarter" unicode="¼" d="M148 679h-60l21 48h100l-59 -369h-53zM621 736l-456 -754h-54l455 754h55zM625 76h-194l297 314l-42 -266h59l-8 -48h-59l-12 -76h-52zM540 124h93l23 121z"></glyph><glyph glyph-name="divide" unicode="÷" d="M254 491v99h98v-99h-98zM254 128v100h98v-100h-98zM56 325v69h494v-69h-494z"></glyph><glyph glyph-name="brokenbar" unicode="¦" d="M371 116v-310h-70v310h70zM371 736v-310h-70v310h70z"></glyph><glyph glyph-name="degree" unicode="°" d="M390 569c0 -99 -80 -169 -169 -169c-95 0 -169 78 -169 164c0 108 83 172 169 172c90 0 169 -70 169 -167zM331 567c0 65 -47 117 -111 117c-58 0 -109 -49 -109 -119c0 -59 51 -113 107 -113c68 0 113 55 113 115z"></glyph><glyph glyph-name="thorn" unicode="þ" d="M3 -194l124 930h69l-37 -284c61 62 131 93 211 93c144 0 248 -101 248 -249c0 -176 -145 -309 -304 -309c-93 0 -157 38 -202 114l-38 -295h-71zM362 482c-139 0 -237 -107 -237 -246c0 -114 80 -186 188 -186c127 0 237 102 237 244c0 116 -79 188 -188 188z"></glyph><glyph glyph-name="threequarters" unicode="¾" d="M146 581h15c55 0 97 25 97 58c0 28 -30 49 -65 49s-62 -16 -68 -51h-55c10 67 63 99 126 99c67 0 117 -41 117 -99c0 -41 -23 -63 -60 -81c30 -21 50 -43 50 -82c0 -69 -66 -125 -152 -125c-72 0 -124 39 -134 117h54c7 -44 31 -69 81 -69c49 0 96 38 96 75 c0 40 -36 65 -108 64zM679 736l-456 -754h-54l455 754h55zM666 76h-194l296 314l-42 -266h59l-7 -48h-59l-12 -76h-53zM580 124h94l22 121z"></glyph><glyph glyph-name="registered" unicode="®" d="M222 165v419h175c28 0 56 0 76 -7c45 -15 74 -57 74 -107c0 -58 -24 -76 -54 -96c37 -18 48 -38 48 -95v-47c0 -40 15 -55 22 -67h-74c-7 27 -9 47 -10 62l-3 51c-3 45 -15 62 -66 62h-121v-175h-67zM395 524h-106v-124h118c48 0 72 19 72 62c0 57 -39 62 -84 62z M738 372c0 -204 -167 -363 -364 -363c-201 0 -365 160 -365 363c0 196 158 364 365 364c203 0 364 -166 364 -364zM687 372c0 170 -138 316 -313 316s-315 -143 -315 -316c0 -178 145 -315 315 -315s313 139 313 315z"></glyph><glyph glyph-name="minus" unicode="−" d="M56 325v69h494v-69h-494z"></glyph><glyph glyph-name="eth" unicode="ð" d="M240 638l86 32c-46 35 -77 54 -96 66h92c22 -12 46 -29 64 -43l90 33l17 -49l-62 -23c92 -90 146 -212 146 -337c0 -201 -150 -331 -306 -331c-146 0 -242 116 -242 252c0 160 147 306 298 306c53 0 101 -16 139 -50c-17 34 -40 79 -96 137l-111 -42zM338 477 c-129 0 -241 -111 -241 -240c0 -106 71 -184 176 -184c116 0 236 107 236 247c0 108 -77 177 -171 177z"></glyph><glyph glyph-name="multiply" unicode="×" d="M510 521l-162 -162l162 -162l-45 -45l-162 162l-162 -162l-45 45l162 162l-162 162l45 45l162 -162l162 162z"></glyph><glyph glyph-name="copyright" unicode="©" d="M489 325h63c-12 -100 -78 -166 -181 -166c-108 0 -189 73 -189 219c0 131 83 215 194 215c99 0 167 -51 176 -143h-63c-13 54 -47 83 -111 83c-81 0 -128 -62 -128 -160c0 -105 47 -162 126 -162c57 0 102 37 113 114zM738 373c0 -202 -164 -362 -364 -362 s-365 161 -365 362c0 202 164 363 365 363c200 0 364 -160 364 -363zM687 373c0 174 -140 315 -313 315c-174 0 -315 -141 -315 -315s142 -314 315 -314c172 0 313 140 313 314z"></glyph><glyph glyph-name="Aacute" unicode="Á" d="M399 718h17l241 -718h-74l-78 235h-304l-135 -235h-80zM482 304l-89 264l-153 -264h242zM351 773l128 151h105l-166 -151h-67z"></glyph><glyph glyph-name="Acircumflex" unicode="Â" d="M399 718h17l241 -718h-74l-78 235h-304l-135 -235h-80zM482 304l-89 264l-153 -264h242zM240 771l163 125h68l124 -125h-89l-75 74l-100 -74h-91z"></glyph><glyph glyph-name="Adieresis" unicode="Ä" d="M399 718h17l241 -718h-74l-78 235h-304l-135 -235h-80zM482 304l-89 264l-153 -264h242zM334 884c30 0 49 -19 49 -57c0 -23 -28 -56 -64 -56c-29 0 -49 18 -49 56c0 23 29 57 64 57zM534 884c30 0 48 -19 48 -57c0 -22 -28 -56 -64 -56c-30 0 -49 18 -49 56 c0 22 29 57 65 57z"></glyph><glyph glyph-name="Agrave" unicode="À" d="M399 718h17l241 -718h-74l-78 235h-304l-135 -235h-80zM482 304l-89 264l-153 -264h242zM318 924h105l85 -151h-67z"></glyph><glyph glyph-name="Aring" unicode="Å" d="M399 718h17l241 -718h-74l-78 235h-304l-135 -235h-80zM482 304l-89 264l-153 -264h242zM398 958c56 0 101 -44 101 -101c0 -56 -45 -102 -101 -102s-102 46 -102 102s45 101 102 101zM398 916c-34 1 -59 -26 -59 -59c0 -34 28 -59 59 -59c33 0 59 27 59 59 c1 33 -27 59 -59 59z"></glyph><glyph glyph-name="Atilde" unicode="Ã" d="M399 718h17l241 -718h-74l-78 235h-304l-135 -235h-80zM482 304l-89 264l-153 -264h242zM493 845c28 0 53 13 78 26l27 -47c-37 -24 -70 -42 -116 -42c-63 0 -87 39 -133 39c-31 0 -55 -16 -82 -34l-25 50c34 31 74 47 116 47c57 0 89 -39 135 -39z"></glyph><glyph glyph-name="Ccedilla" unicode="Ç" d="M655 134l41 -57c-88 -58 -161 -94 -290 -94c-229 0 -367 146 -367 341c0 231 188 412 434 412c119 0 205 -37 297 -117l-44 -60c-75 71 -164 107 -260 107c-194 0 -354 -151 -354 -340c0 -167 119 -276 295 -276c87 0 172 28 248 84zM304 -99l27 99h43l-17 -58 c7 1 12 2 19 2c33 0 49 -17 49 -52c0 -29 -40 -78 -123 -78c-27 0 -54 5 -79 15l15 34c17 -6 39 -10 58 -10c49 0 70 17 70 32s-12 21 -28 21c-11 0 -25 -3 -34 -5z"></glyph><glyph glyph-name="Eacute" unicode="É" d="M120 718h396l-10 -69h-323l-32 -236h323l-9 -69h-323l-37 -275h323l-8 -69h-396zM266 773l128 151h105l-166 -151h-67z"></glyph><glyph glyph-name="Ecircumflex" unicode="Ê" d="M120 718h396l-10 -69h-323l-32 -236h323l-9 -69h-323l-37 -275h323l-8 -69h-396zM156 771l163 125h68l124 -125h-89l-75 74l-100 -74h-91z"></glyph><glyph glyph-name="Edieresis" unicode="Ë" d="M120 718h396l-10 -69h-323l-32 -236h323l-9 -69h-323l-37 -275h323l-8 -69h-396zM249 884c30 0 49 -19 49 -57c0 -23 -28 -56 -64 -56c-29 0 -49 18 -49 56c0 23 29 57 64 57zM449 884c30 0 48 -19 48 -57c0 -22 -28 -56 -64 -56c-30 0 -49 18 -49 56c0 22 29 57 65 57z "></glyph><glyph glyph-name="Egrave" unicode="È" d="M120 718h396l-10 -69h-323l-32 -236h323l-9 -69h-323l-37 -275h323l-8 -69h-396zM214 924h105l85 -151h-67z"></glyph><glyph glyph-name="Iacute" unicode="Í" d="M19 0l97 718h72l-96 -718h-73zM92 773l128 151h105l-166 -151h-67z"></glyph><glyph glyph-name="Icircumflex" unicode="Î" d="M19 0l97 718h72l-96 -718h-73zM-19 771l163 125h68l124 -125h-89l-75 74l-100 -74h-91z"></glyph><glyph glyph-name="Idieresis" unicode="Ï" d="M19 0l97 718h72l-96 -718h-73zM75 884c30 0 49 -19 49 -57c0 -23 -28 -56 -64 -56c-29 0 -49 18 -49 56c0 23 29 57 64 57zM275 884c30 0 48 -19 48 -57c0 -22 -28 -56 -64 -56c-30 0 -49 18 -49 56c0 22 29 57 65 57z"></glyph><glyph glyph-name="Igrave" unicode="Ì" d="M19 0l97 718h72l-96 -718h-73zM59 924h105l85 -151h-67z"></glyph><glyph glyph-name="Ntilde" unicode="Ñ" d="M542 161l75 557h71l-98 -718h-15l-404 557l-76 -557h-71l97 718h16zM510 845c28 0 53 13 78 26l27 -47c-37 -24 -70 -42 -116 -42c-63 0 -87 39 -133 39c-31 0 -55 -16 -82 -34l-25 50c34 31 74 47 116 47c57 0 89 -39 135 -39z"></glyph><glyph glyph-name="Oacute" unicode="Ó" d="M466 736c186 0 339 -133 339 -336c0 -234 -181 -418 -428 -418c-212 0 -343 139 -343 336c0 236 181 418 432 418zM465 669c-216 0 -358 -162 -358 -349c0 -159 102 -271 269 -271c202 0 356 156 356 355c0 160 -118 265 -267 265zM432 773l128 151h105l-166 -151h-67z "></glyph><glyph glyph-name="Ocircumflex" unicode="Ô" d="M466 736c186 0 339 -133 339 -336c0 -234 -181 -418 -428 -418c-212 0 -343 139 -343 336c0 236 181 418 432 418zM465 669c-216 0 -358 -162 -358 -349c0 -159 102 -271 269 -271c202 0 356 156 356 355c0 160 -118 265 -267 265zM322 771l163 125h68l124 -125h-89 l-75 74l-100 -74h-91z"></glyph><glyph glyph-name="Odieresis" unicode="Ö" d="M466 736c186 0 339 -133 339 -336c0 -234 -181 -418 -428 -418c-212 0 -343 139 -343 336c0 236 181 418 432 418zM465 669c-216 0 -358 -162 -358 -349c0 -159 102 -271 269 -271c202 0 356 156 356 355c0 160 -118 265 -267 265zM415 884c30 0 49 -19 49 -57 c0 -23 -28 -56 -64 -56c-29 0 -49 18 -49 56c0 23 29 57 64 57zM615 884c30 0 48 -19 48 -57c0 -22 -28 -56 -64 -56c-30 0 -49 18 -49 56c0 22 29 57 65 57z"></glyph><glyph glyph-name="Ograve" unicode="Ò" d="M466 736c186 0 339 -133 339 -336c0 -234 -181 -418 -428 -418c-212 0 -343 139 -343 336c0 236 181 418 432 418zM465 669c-216 0 -358 -162 -358 -349c0 -159 102 -271 269 -271c202 0 356 156 356 355c0 160 -118 265 -267 265zM380 924h105l85 -151h-67z"></glyph><glyph glyph-name="Otilde" unicode="Õ" d="M466 736c186 0 339 -133 339 -336c0 -234 -181 -418 -428 -418c-212 0 -343 139 -343 336c0 236 181 418 432 418zM465 669c-216 0 -358 -162 -358 -349c0 -159 102 -271 269 -271c202 0 356 156 356 355c0 160 -118 265 -267 265zM575 845c28 0 53 13 78 26l27 -47 c-37 -24 -70 -42 -116 -42c-63 0 -87 39 -133 39c-31 0 -55 -16 -82 -34l-25 50c34 31 74 47 116 47c57 0 89 -39 135 -39z"></glyph><glyph glyph-name="Scaron" unicode="Š" d="M7 155l67 22c21 -88 71 -127 131 -127c67 0 129 55 129 134c0 85 -53 125 -164 233c-35 34 -61 95 -61 150c0 103 78 169 168 169c79 0 145 -49 175 -150l-67 -18c-18 60 -63 101 -113 101c-55 0 -90 -44 -90 -102c0 -39 21 -86 51 -114c114 -104 174 -172 174 -266 c0 -108 -92 -204 -208 -204c-93 0 -163 60 -192 172zM509 896l-163 -125h-68l-124 125h88l76 -74l100 74h91z"></glyph><glyph glyph-name="Uacute" unicode="Ú" d="M61 318l52 400h71l-54 -411c-4 -31 -10 -70 -10 -114c0 -95 53 -143 147 -143c57 0 108 19 141 53c51 51 67 139 83 268l44 347h71l-48 -362c-7 -50 -11 -113 -32 -181c-40 -131 -120 -192 -258 -192c-140 0 -221 75 -221 198c0 49 9 96 14 137zM326 773l128 151h105 l-166 -151h-67z"></glyph><glyph glyph-name="Ucircumflex" unicode="Û" d="M61 318l52 400h71l-54 -411c-4 -31 -10 -70 -10 -114c0 -95 53 -143 147 -143c57 0 108 19 141 53c51 51 67 139 83 268l44 347h71l-48 -362c-7 -50 -11 -113 -32 -181c-40 -131 -120 -192 -258 -192c-140 0 -221 75 -221 198c0 49 9 96 14 137zM215 771l163 125h68 l124 -125h-89l-75 74l-100 -74h-91z"></glyph><glyph glyph-name="Udieresis" unicode="Ü" d="M61 318l52 400h71l-54 -411c-4 -31 -10 -70 -10 -114c0 -95 53 -143 147 -143c57 0 108 19 141 53c51 51 67 139 83 268l44 347h71l-48 -362c-7 -50 -11 -113 -32 -181c-40 -131 -120 -192 -258 -192c-140 0 -221 75 -221 198c0 49 9 96 14 137zM309 884 c30 0 49 -19 49 -57c0 -23 -28 -56 -64 -56c-29 0 -49 18 -49 56c0 23 29 57 64 57zM509 884c30 0 48 -19 48 -57c0 -22 -28 -56 -64 -56c-30 0 -49 18 -49 56c0 22 29 57 65 57z"></glyph><glyph glyph-name="Ugrave" unicode="Ù" d="M61 318l52 400h71l-54 -411c-4 -31 -10 -70 -10 -114c0 -95 53 -143 147 -143c57 0 108 19 141 53c51 51 67 139 83 268l44 347h71l-48 -362c-7 -50 -11 -113 -32 -181c-40 -131 -120 -192 -258 -192c-140 0 -221 75 -221 198c0 49 9 96 14 137zM273 924h105l85 -151h-67 z"></glyph><glyph glyph-name="Yacute" unicode="Ý" d="M228 322l-187 396h75l154 -326l259 326h87l-318 -400l-44 -318h-70zM294 773l128 151h105l-166 -151h-67z"></glyph><glyph glyph-name="Ydieresis" unicode="Ÿ" d="M228 322l-187 396h75l154 -326l259 326h87l-318 -400l-44 -318h-70zM277 884c30 0 49 -19 49 -57c0 -23 -28 -56 -64 -56c-29 0 -49 18 -49 56c0 23 29 57 64 57zM477 884c30 0 48 -19 48 -57c0 -22 -28 -56 -64 -56c-30 0 -49 18 -49 56c0 22 29 57 65 57z"></glyph><glyph glyph-name="Zcaron" unicode="Ž" d="M97 649l10 69h369l-353 -649h269l-9 -69h-376l354 649h-264zM500 896l-163 -125h-68l-124 125h88l76 -74l100 74h91z"></glyph><glyph glyph-name="aacute" unicode="á" d="M535 430l12 101h71l-71 -531h-69l10 80c-61 -62 -131 -94 -211 -94c-145 0 -248 103 -248 250c0 176 146 309 304 309c93 0 156 -39 202 -115zM285 49c140 0 237 108 237 246c0 114 -80 187 -188 187c-128 0 -237 -104 -237 -245c0 -116 79 -188 188 -188zM310 630 l128 151h105l-166 -151h-67z"></glyph><glyph glyph-name="acircumflex" unicode="â" d="M535 430l12 101h71l-71 -531h-69l10 80c-61 -62 -131 -94 -211 -94c-145 0 -248 103 -248 250c0 176 146 309 304 309c93 0 156 -39 202 -115zM285 49c140 0 237 108 237 246c0 114 -80 187 -188 187c-128 0 -237 -104 -237 -245c0 -116 79 -188 188 -188zM200 628 l163 125h68l124 -125h-89l-75 74l-100 -74h-91z"></glyph><glyph glyph-name="adieresis" unicode="ä" d="M535 430l12 101h71l-71 -531h-69l10 80c-61 -62 -131 -94 -211 -94c-145 0 -248 103 -248 250c0 176 146 309 304 309c93 0 156 -39 202 -115zM285 49c140 0 237 108 237 246c0 114 -80 187 -188 187c-128 0 -237 -104 -237 -245c0 -116 79 -188 188 -188zM293 741 c30 0 49 -19 49 -57c0 -23 -28 -56 -64 -56c-29 0 -49 18 -49 56c0 23 29 57 64 57zM493 741c30 0 48 -19 48 -57c0 -22 -28 -56 -64 -56c-30 0 -49 18 -49 56c0 22 29 57 65 57z"></glyph><glyph glyph-name="agrave" unicode="à" d="M535 430l12 101h71l-71 -531h-69l10 80c-61 -62 -131 -94 -211 -94c-145 0 -248 103 -248 250c0 176 146 309 304 309c93 0 156 -39 202 -115zM285 49c140 0 237 108 237 246c0 114 -80 187 -188 187c-128 0 -237 -104 -237 -245c0 -116 79 -188 188 -188zM258 781h105 l85 -151h-67z"></glyph><glyph glyph-name="aring" unicode="å" d="M535 430l12 101h71l-71 -531h-69l10 80c-61 -62 -131 -94 -211 -94c-145 0 -248 103 -248 250c0 176 146 309 304 309c93 0 156 -39 202 -115zM285 49c140 0 237 108 237 246c0 114 -80 187 -188 187c-128 0 -237 -104 -237 -245c0 -116 79 -188 188 -188zM358 815 c56 0 101 -44 101 -101c0 -56 -45 -102 -101 -102s-102 46 -102 102s45 101 102 101zM358 773c-34 1 -59 -26 -59 -59c0 -34 28 -59 59 -59c33 0 59 27 59 59c1 33 -27 59 -59 59z"></glyph><glyph glyph-name="atilde" unicode="ã" d="M535 430l12 101h71l-71 -531h-69l10 80c-61 -62 -131 -94 -211 -94c-145 0 -248 103 -248 250c0 176 146 309 304 309c93 0 156 -39 202 -115zM285 49c140 0 237 108 237 246c0 114 -80 187 -188 187c-128 0 -237 -104 -237 -245c0 -116 79 -188 188 -188zM452 702 c28 0 53 13 78 26l27 -47c-37 -24 -70 -42 -116 -42c-63 0 -87 39 -133 39c-31 0 -55 -16 -82 -34l-25 50c34 31 74 47 116 47c57 0 89 -39 135 -39z"></glyph><glyph glyph-name="ccedilla" unicode="ç" d="M498 137l56 -40c-69 -76 -150 -111 -258 -111c-170 0 -267 103 -267 252c0 172 141 307 320 307c106 0 192 -47 236 -128l-57 -33c-39 62 -101 94 -180 94c-148 0 -251 -105 -251 -236c0 -114 74 -193 196 -193c81 0 162 36 205 88zM221 -99l27 99h43l-17 -58 c7 1 12 2 19 2c33 0 49 -17 49 -52c0 -29 -40 -78 -123 -78c-27 0 -54 5 -79 15l15 34c17 -6 39 -10 58 -10c49 0 70 17 70 32s-12 21 -28 21c-11 0 -25 -3 -34 -5z"></glyph><glyph glyph-name="eacute" unicode="é" d="M464 136l51 -41c-52 -65 -137 -109 -236 -109c-160 0 -250 115 -250 252c0 162 133 308 309 308c142 0 236 -109 236 -246c0 -14 -2 -34 -4 -48h-473v-14c0 -110 72 -189 184 -189c74 0 141 31 183 87zM108 312h400c-4 102 -77 167 -174 167c-102 0 -191 -59 -226 -167z M293 630l128 151h105l-166 -151h-67z"></glyph><glyph glyph-name="ecircumflex" unicode="ê" d="M464 136l51 -41c-52 -65 -137 -109 -236 -109c-160 0 -250 115 -250 252c0 162 133 308 309 308c142 0 236 -109 236 -246c0 -14 -2 -34 -4 -48h-473v-14c0 -110 72 -189 184 -189c74 0 141 31 183 87zM108 312h400c-4 102 -77 167 -174 167c-102 0 -191 -59 -226 -167z M183 628l163 125h68l124 -125h-89l-75 74l-100 -74h-91z"></glyph><glyph glyph-name="edieresis" unicode="ë" d="M464 136l51 -41c-52 -65 -137 -109 -236 -109c-160 0 -250 115 -250 252c0 162 133 308 309 308c142 0 236 -109 236 -246c0 -14 -2 -34 -4 -48h-473v-14c0 -110 72 -189 184 -189c74 0 141 31 183 87zM108 312h400c-4 102 -77 167 -174 167c-102 0 -191 -59 -226 -167z M277 741c30 0 49 -19 49 -57c0 -23 -28 -56 -64 -56c-29 0 -49 18 -49 56c0 23 29 57 64 57zM477 741c30 0 48 -19 48 -57c0 -22 -28 -56 -64 -56c-30 0 -49 18 -49 56c0 22 29 57 65 57z"></glyph><glyph glyph-name="egrave" unicode="è" d="M464 136l51 -41c-52 -65 -137 -109 -236 -109c-160 0 -250 115 -250 252c0 162 133 308 309 308c142 0 236 -109 236 -246c0 -14 -2 -34 -4 -48h-473v-14c0 -110 72 -189 184 -189c74 0 141 31 183 87zM108 312h400c-4 102 -77 167 -174 167c-102 0 -191 -59 -226 -167z M241 781h105l85 -151h-67z"></glyph><glyph glyph-name="iacute" unicode="í" d="M7 0l73 531h65l-71 -531h-67zM70 630l128 151h105l-166 -151h-67z"></glyph><glyph glyph-name="icircumflex" unicode="î" d="M7 0l73 531h65l-71 -531h-67zM-41 628l163 125h68l124 -125h-89l-75 74l-100 -74h-91z"></glyph><glyph glyph-name="idieresis" unicode="ï" d="M7 0l73 531h65l-71 -531h-67zM53 741c30 0 49 -19 49 -57c0 -23 -28 -56 -64 -56c-29 0 -49 18 -49 56c0 23 29 57 64 57zM253 741c30 0 48 -19 48 -57c0 -22 -28 -56 -64 -56c-30 0 -49 18 -49 56c0 22 29 57 65 57z"></glyph><glyph glyph-name="igrave" unicode="ì" d="M7 0l73 531h65l-71 -531h-67zM17 781h105l85 -151h-67z"></glyph><glyph glyph-name="ntilde" unicode="ñ" d="M159 531l-10 -81c54 63 116 95 188 95c105 0 182 -69 182 -183c0 -51 -7 -91 -11 -118l-33 -244h-67l33 244c4 33 10 72 10 114c0 75 -47 124 -122 124c-67 0 -129 -33 -164 -88c-25 -39 -36 -95 -46 -164l-32 -230h-67l74 531h65zM416 702c28 0 53 13 78 26l27 -47 c-37 -24 -70 -42 -116 -42c-63 0 -87 39 -133 39c-31 0 -55 -16 -82 -34l-25 50c34 31 74 47 116 47c57 0 89 -39 135 -39z"></glyph><glyph glyph-name="oacute" unicode="ó" d="M332 545c138 0 245 -103 245 -254c0 -167 -123 -304 -305 -304c-147 0 -245 105 -245 248c0 174 134 310 305 310zM330 482c-131 0 -235 -102 -235 -243c0 -110 74 -189 186 -189c137 0 228 110 228 242c0 114 -77 190 -179 190zM296 630l128 151h105l-166 -151h-67z"></glyph><glyph glyph-name="ocircumflex" unicode="ô" d="M332 545c138 0 245 -103 245 -254c0 -167 -123 -304 -305 -304c-147 0 -245 105 -245 248c0 174 134 310 305 310zM330 482c-131 0 -235 -102 -235 -243c0 -110 74 -189 186 -189c137 0 228 110 228 242c0 114 -77 190 -179 190zM186 628l163 125h68l124 -125h-89l-75 74 l-100 -74h-91z"></glyph><glyph glyph-name="odieresis" unicode="ö" d="M332 545c138 0 245 -103 245 -254c0 -167 -123 -304 -305 -304c-147 0 -245 105 -245 248c0 174 134 310 305 310zM330 482c-131 0 -235 -102 -235 -243c0 -110 74 -189 186 -189c137 0 228 110 228 242c0 114 -77 190 -179 190zM279 741c30 0 49 -19 49 -57 c0 -23 -28 -56 -64 -56c-29 0 -49 18 -49 56c0 23 29 57 64 57zM479 741c30 0 48 -19 48 -57c0 -22 -28 -56 -64 -56c-30 0 -49 18 -49 56c0 22 29 57 65 57z"></glyph><glyph glyph-name="ograve" unicode="ò" d="M332 545c138 0 245 -103 245 -254c0 -167 -123 -304 -305 -304c-147 0 -245 105 -245 248c0 174 134 310 305 310zM330 482c-131 0 -235 -102 -235 -243c0 -110 74 -189 186 -189c137 0 228 110 228 242c0 114 -77 190 -179 190zM244 781h105l85 -151h-67z"></glyph><glyph glyph-name="otilde" unicode="õ" d="M332 545c138 0 245 -103 245 -254c0 -167 -123 -304 -305 -304c-147 0 -245 105 -245 248c0 174 134 310 305 310zM330 482c-131 0 -235 -102 -235 -243c0 -110 74 -189 186 -189c137 0 228 110 228 242c0 114 -77 190 -179 190zM438 702c28 0 53 13 78 26l27 -47 c-37 -24 -70 -42 -116 -42c-63 0 -87 39 -133 39c-31 0 -55 -16 -82 -34l-25 50c34 31 74 47 116 47c57 0 89 -39 135 -39z"></glyph><glyph glyph-name="scaron" unicode="š" d="M-17 74l41 48c40 -48 84 -72 128 -72c48 0 98 39 98 93c0 29 -15 58 -42 77c-108 77 -165 108 -165 183c0 80 70 142 158 142c66 0 103 -31 138 -73l-37 -56c-29 41 -63 66 -106 66c-50 0 -85 -41 -85 -76c0 -24 17 -50 46 -69c96 -63 161 -102 161 -196 c0 -92 -73 -154 -169 -154c-64 0 -122 31 -166 87zM426 753l-163 -125h-68l-124 125h88l76 -74l100 74h91z"></glyph><glyph glyph-name="uacute" unicode="ú" d="M65 329l27 202h68l-30 -222c-6 -45 -13 -86 -13 -121c0 -84 63 -138 148 -138c53 0 103 24 132 62c33 43 37 96 45 154l38 265h66l-27 -201c-16 -118 -31 -203 -67 -254c-40 -55 -110 -89 -190 -89c-124 0 -210 83 -210 198c0 22 4 75 13 144zM273 630l128 151h105 l-166 -151h-67z"></glyph><glyph glyph-name="ucircumflex" unicode="û" d="M65 329l27 202h68l-30 -222c-6 -45 -13 -86 -13 -121c0 -84 63 -138 148 -138c53 0 103 24 132 62c33 43 37 96 45 154l38 265h66l-27 -201c-16 -118 -31 -203 -67 -254c-40 -55 -110 -89 -190 -89c-124 0 -210 83 -210 198c0 22 4 75 13 144zM162 628l163 125h68 l124 -125h-89l-75 74l-100 -74h-91z"></glyph><glyph glyph-name="udieresis" unicode="ü" d="M65 329l27 202h68l-30 -222c-6 -45 -13 -86 -13 -121c0 -84 63 -138 148 -138c53 0 103 24 132 62c33 43 37 96 45 154l38 265h66l-27 -201c-16 -118 -31 -203 -67 -254c-40 -55 -110 -89 -190 -89c-124 0 -210 83 -210 198c0 22 4 75 13 144zM256 741 c30 0 49 -19 49 -57c0 -23 -28 -56 -64 -56c-29 0 -49 18 -49 56c0 23 29 57 64 57zM456 741c30 0 48 -19 48 -57c0 -22 -28 -56 -64 -56c-30 0 -49 18 -49 56c0 22 29 57 65 57z"></glyph><glyph glyph-name="ugrave" unicode="ù" d="M65 329l27 202h68l-30 -222c-6 -45 -13 -86 -13 -121c0 -84 63 -138 148 -138c53 0 103 24 132 62c33 43 37 96 45 154l38 265h66l-27 -201c-16 -118 -31 -203 -67 -254c-40 -55 -110 -89 -190 -89c-124 0 -210 83 -210 198c0 22 4 75 13 144zM220 781h105l85 -151h-67z "></glyph><glyph glyph-name="yacute" unicode="ý" d="M187 65l-164 466h71l137 -392l228 392h75l-420 -725h-77zM237 630l128 151h105l-166 -151h-67z"></glyph><glyph glyph-name="ydieresis" unicode="ÿ" d="M187 65l-164 466h71l137 -392l228 392h75l-420 -725h-77zM220 741c30 0 49 -19 49 -57c0 -23 -28 -56 -64 -56c-29 0 -49 18 -49 56c0 23 29 57 64 57zM420 741c30 0 48 -19 48 -57c0 -22 -28 -56 -64 -56c-30 0 -49 18 -49 56c0 22 29 57 65 57z"></glyph><glyph glyph-name="zcaron" unicode="ž" d="M37 471l8 60h365l-317 -471h288l-8 -60h-401l319 471h-254zM444 753l-163 -125h-68l-124 125h88l76 -74l100 74h91z"></glyph><glyph glyph-name="oneeighth" unicode="⅛" d="M177 -18h-55l455 754h55zM124 679l21 48h99l-58 -369h-54l51 321h-59zM701 199c42 -20 63 -48 63 -85c0 -34 -15 -63 -45 -87c-29 -24 -66 -36 -111 -36c-79 0 -135 47 -135 103c0 49 31 85 92 110c-30 18 -45 41 -45 69s14 52 41 73c28 21 60 32 96 32 c68 0 116 -42 116 -91c0 -36 -24 -65 -72 -88zM718 283c0 25 -26 47 -62 47c-45 0 -83 -28 -83 -60c0 -27 27 -45 67 -45c43 0 78 26 78 58zM711 115c0 29 -27 61 -78 61c-56 0 -105 -33 -105 -78c0 -37 35 -61 82 -61c60 0 101 37 101 78z"></glyph><glyph glyph-name="threeeighths" unicode="⅜" d="M207 -18h-55l455 754h55zM134 637h-54c3 32 17 56 42 73s53 26 84 26c64 0 115 -39 115 -99c0 -36 -20 -63 -59 -81c33 -22 50 -49 50 -82c0 -35 -15 -65 -45 -89c-29 -24 -65 -36 -106 -36c-71 0 -127 41 -135 117h54c7 -46 35 -69 82 -69c49 0 95 35 95 75 c0 43 -36 64 -108 64l6 46c7 -1 12 -1 16 -1c51 0 96 23 96 58c0 29 -30 49 -65 49c-39 0 -61 -17 -68 -51zM701 199c42 -20 63 -48 63 -85c0 -34 -15 -63 -45 -87c-29 -24 -66 -36 -111 -36c-79 0 -135 47 -135 103c0 49 31 85 92 110c-30 18 -45 41 -45 69s14 52 41 73 c28 21 60 32 96 32c67 0 116 -42 116 -91c0 -36 -24 -65 -72 -88zM718 283c0 25 -27 47 -62 47c-45 0 -83 -28 -83 -60c0 -27 27 -45 67 -45c43 0 78 26 78 58zM711 115c0 32 -30 61 -78 61c-56 0 -105 -33 -105 -78c0 -37 35 -61 82 -61c60 0 101 37 101 78z"></glyph><glyph glyph-name="fiveeighths" unicode="⅝" d="M201 -18h-55l456 754h54zM90 544l63 183h183l-8 -48h-137l-26 -75c7 1 13 1 17 1c34 0 63 -12 88 -35s37 -52 37 -85c0 -36 -14 -68 -43 -95c-28 -27 -65 -41 -110 -41c-63 0 -109 28 -137 84l49 18c19 -36 49 -54 89 -54c51 0 96 36 96 87c0 44 -30 77 -85 77 c-22 0 -47 -6 -76 -17zM701 199c42 -20 63 -48 63 -85c0 -34 -15 -63 -45 -87c-29 -24 -66 -36 -111 -36c-39 0 -71 10 -97 30c-25 21 -38 45 -38 73c0 49 31 85 92 110c-30 18 -45 41 -45 69s14 52 41 73c28 21 60 32 96 32c68 0 116 -43 116 -91c0 -36 -24 -65 -72 -88z M718 283c0 25 -26 47 -62 47c-45 0 -83 -28 -83 -60c0 -27 28 -45 67 -45c44 0 78 26 78 58zM712 115c0 32 -31 61 -79 61c-56 0 -105 -33 -105 -78c0 -37 35 -61 82 -61c60 0 102 37 102 78z"></glyph><glyph glyph-name="seveneighths" unicode="⅞" d="M165 -18h-55l455 754h55zM63 679l10 48h281l-278 -378l-46 26l225 304h-192zM701 199c42 -20 63 -48 63 -85c0 -34 -15 -63 -45 -87c-29 -24 -66 -36 -111 -36c-79 0 -135 47 -135 103c0 49 31 85 92 110c-30 18 -45 41 -45 69s14 52 41 73c28 21 60 32 96 32 c68 0 116 -42 116 -91c0 -36 -24 -65 -72 -88zM718 283c0 25 -26 47 -62 47c-45 0 -83 -28 -83 -60c0 -27 27 -45 67 -45c43 0 78 26 78 58zM711 115c0 32 -30 61 -78 61c-56 0 -105 -33 -105 -78c0 -37 35 -61 82 -61c60 0 101 37 101 78z"></glyph><glyph glyph-name="onethird" unicode="⅓" d="M194 -18h-54l455 754h55zM123 679l22 48h99l-59 -369h-53l51 321h-60zM584 279h-54c7 64 65 99 125 99c67 0 116 -40 116 -99c0 -36 -20 -63 -59 -81c33 -22 50 -49 50 -82c0 -35 -15 -65 -45 -89c-29 -24 -65 -36 -107 -36c-69 0 -126 41 -133 116h53 c8 -45 35 -68 82 -68c49 0 96 34 96 74c0 43 -36 65 -109 65l6 45h16c52 0 96 23 96 58c0 28 -30 49 -65 49c-39 0 -61 -17 -68 -51z"></glyph><glyph glyph-name="twothirds" unicode="⅔" d="M122 606h-55c3 85 60 130 139 130c69 0 120 -42 120 -99c0 -17 -4 -34 -13 -51s-31 -42 -67 -76l-111 -103h172l-7 -49h-291l194 182c45 42 68 74 68 97c0 29 -30 52 -69 52c-51 0 -78 -28 -80 -83zM219 -18h-54l455 754h54zM584 279h-54c8 64 65 99 126 99 c65 0 115 -40 115 -99c0 -36 -20 -63 -59 -81c33 -22 50 -49 50 -82c0 -35 -15 -65 -45 -89c-29 -24 -65 -36 -106 -36c-71 0 -127 41 -134 116h53c8 -45 35 -68 82 -68c49 0 96 34 96 74c0 43 -36 65 -109 65l6 45h16c52 0 96 23 96 58c0 28 -30 49 -65 49 c-39 0 -61 -17 -68 -51z"></glyph><glyph glyph-name="one.superior" unicode="¹" d="M123 679l21 48h100l-59 -369h-53l51 321h-60z"></glyph><glyph glyph-name="two.superior" unicode="²" d="M8 359l152 141c69 64 110 101 110 138c0 28 -28 50 -69 50c-48 0 -78 -27 -80 -82h-55c5 86 58 130 139 130c70 0 120 -42 120 -99c0 -55 -40 -91 -104 -150l-87 -80h172l-7 -48h-291z"></glyph><glyph glyph-name="three.superior" unicode="³" d="M155 581h15c55 0 97 25 97 58c0 28 -30 49 -65 49s-62 -16 -68 -51h-55c10 67 63 99 126 99c67 0 117 -41 117 -99c0 -41 -23 -63 -60 -81c30 -21 50 -43 50 -82c0 -69 -66 -125 -152 -125c-72 0 -124 39 -134 117h54c7 -44 31 -69 81 -69c49 0 96 38 96 75 c0 40 -36 65 -108 64z"></glyph><glyph glyph-name="commaaccent" unicode="" d="M79 -101l6 39c15 5 30 7 46 7c51 0 77 -18 77 -53c0 -45 -44 -78 -112 -78c-21 0 -44 4 -71 11l11 35c22 -5 39 -7 50 -7c43 0 64 11 64 32c0 14 -12 21 -36 21c-9 0 -20 -2 -35 -7z"></glyph><glyph glyph-name="Abreve" unicode="Ă" d="M399 718h17l241 -718h-74l-78 235h-304l-135 -235h-80zM482 304l-89 264l-153 -264h242zM550 888h62c-22 -58 -87 -103 -185 -103c-95 0 -153 41 -161 103h64c18 -35 53 -51 104 -51c52 0 83 13 116 51z"></glyph><glyph glyph-name="Amacron" unicode="Ā" d="M399 718h17l241 -718h-74l-78 235h-304l-135 -235h-80zM482 304l-89 264l-153 -264h242zM259 806l8 60h337l-8 -60h-337z"></glyph><glyph glyph-name="Aogonek" unicode="Ą" d="M674 -145l-11 -42c-14 -3 -29 -4 -42 -4c-69 0 -99 25 -99 87c0 28 28 76 73 104h-12l-78 235h-304l-135 -235h-80l413 718h17l241 -718h-9c-46 -35 -71 -68 -71 -93c0 -38 17 -55 62 -55c10 0 26 2 35 3zM482 304l-89 264l-153 -264h242z"></glyph><glyph glyph-name="AEacute" unicode="Ǽ" d="M859 69l-8 -69h-406l32 234h-247l-168 -234h-78l517 718h437l-10 -69h-323l-32 -236h323l-9 -69h-323l-37 -275h332zM486 303l47 353l-253 -353h206zM600 773l128 151h105l-166 -151h-67z"></glyph><glyph glyph-name="Cacute" unicode="Ć" d="M655 134l41 -57c-88 -58 -161 -94 -290 -94c-229 0 -367 146 -367 341c0 231 188 412 434 412c119 0 205 -37 297 -117l-44 -60c-75 71 -164 107 -260 107c-194 0 -354 -151 -354 -340c0 -167 119 -276 295 -276c87 0 172 28 248 84zM426 773l128 151h105l-166 -151h-67z "></glyph><glyph glyph-name="Ccaron" unicode="Č" d="M655 134l41 -57c-88 -58 -161 -94 -290 -94c-229 0 -367 146 -367 341c0 231 188 412 434 412c119 0 205 -37 297 -117l-44 -60c-75 71 -164 107 -260 107c-194 0 -354 -151 -354 -340c0 -167 119 -276 295 -276c87 0 172 28 248 84zM691 896l-163 -125h-68l-124 125h88 l76 -74l100 74h91z"></glyph><glyph glyph-name="Ccircumflex" unicode="Ĉ" d="M655 134l41 -57c-88 -58 -161 -94 -290 -94c-229 0 -367 146 -367 341c0 231 188 412 434 412c119 0 205 -37 297 -117l-44 -60c-75 71 -164 107 -260 107c-194 0 -354 -151 -354 -340c0 -167 119 -276 295 -276c87 0 172 28 248 84zM318 771l163 125h68l124 -125h-89 l-75 74l-100 -74h-91z"></glyph><glyph glyph-name="Cdotaccent" unicode="Ċ" d="M655 134l41 -57c-88 -58 -161 -94 -290 -94c-229 0 -367 146 -367 341c0 231 188 412 434 412c119 0 205 -37 297 -117l-44 -60c-75 71 -164 107 -260 107c-194 0 -354 -151 -354 -340c0 -167 119 -276 295 -276c87 0 172 28 248 84zM511 884c30 0 49 -19 49 -57 c0 -23 -28 -56 -64 -56c-29 0 -49 18 -49 56c0 23 29 57 64 57z"></glyph><glyph glyph-name="Dcaron" unicode="Ď" d="M23 0l95 718h171c77 0 144 -8 208 -39c110 -53 175 -167 175 -300c0 -120 -54 -237 -134 -302c-76 -63 -164 -77 -272 -77h-243zM268 649h-88l-77 -580h81c112 0 197 1 266 36c88 45 149 149 149 272c0 105 -48 192 -134 237c-63 33 -126 35 -197 35zM598 896l-163 -125 h-68l-124 125h88l76 -74l100 74h91z"></glyph><glyph glyph-name="Dcroat" unicode="Đ" d="M68 0l44 327h-91l9 64h90l44 327h170c117 0 205 -21 274 -82c68 -59 107 -153 107 -257c0 -120 -52 -237 -132 -302c-75 -61 -159 -77 -272 -77h-243zM358 327h-175l-34 -258h80c111 0 199 1 266 36c89 46 152 152 152 272c0 135 -80 234 -208 262c-48 11 -77 10 -126 10 h-87l-35 -258h175z"></glyph><glyph glyph-name="Ebreve" unicode="Ĕ" d="M120 718h396l-10 -69h-323l-32 -236h323l-9 -69h-323l-37 -275h323l-8 -69h-396zM451 888h62c-22 -58 -87 -103 -185 -103c-95 0 -153 41 -161 103h64c18 -35 53 -51 104 -51c52 0 83 13 116 51z"></glyph><glyph glyph-name="Ecaron" unicode="Ě" d="M120 718h396l-10 -69h-323l-32 -236h323l-9 -69h-323l-37 -275h323l-8 -69h-396zM519 896l-163 -125h-68l-124 125h88l76 -74l100 74h91z"></glyph><glyph glyph-name="Edotaccent" unicode="Ė" d="M120 718h396l-10 -69h-323l-32 -236h323l-9 -69h-323l-37 -275h323l-8 -69h-396zM339 884c30 0 49 -19 49 -57c0 -23 -28 -56 -64 -56c-29 0 -49 18 -49 56c0 23 29 57 64 57z"></glyph><glyph glyph-name="Emacron" unicode="Ē" d="M120 718h396l-10 -69h-323l-32 -236h323l-9 -69h-323l-37 -275h323l-8 -69h-396zM160 806l8 60h337l-8 -60h-337z"></glyph><glyph glyph-name="Eng" unicode="Ŋ" d="M167 547l-72 -547h-72l97 718h70l-11 -86c74 69 156 104 245 104c86 0 155 -29 206 -87c52 -58 78 -135 78 -231c0 -115 -33 -216 -99 -304s-146 -132 -240 -132c-75 0 -124 21 -163 94l54 42c26 -45 66 -68 119 -68c70 0 130 38 180 113c51 76 76 158 76 246 c0 77 -21 140 -63 187c-42 48 -97 72 -165 72c-87 0 -167 -40 -240 -121z"></glyph><glyph glyph-name="Eogonek" unicode="Ę" d="M407 -145l-11 -42c-14 -3 -29 -4 -42 -4c-69 0 -99 25 -99 87c0 28 28 76 73 104h-304l96 718h396l-10 -69h-323l-32 -236h323l-9 -69h-323l-37 -275h323l-8 -69h-39c-46 -35 -71 -68 -71 -93c0 -38 17 -55 62 -55c10 0 26 2 35 3z"></glyph><glyph glyph-name="Gbreve" unicode="Ğ" d="M447 351h350c-15 -220 -170 -368 -387 -368c-225 0 -371 153 -371 351c0 223 181 402 408 402c131 0 244 -57 333 -172l-58 -43c-74 97 -175 148 -277 148c-174 0 -333 -148 -333 -333c0 -160 128 -286 290 -286c142 0 269 81 308 232h-263v69zM619 888h62 c-22 -58 -87 -103 -185 -103c-95 0 -153 41 -161 103h64c18 -35 53 -51 104 -51c52 0 83 13 116 51z"></glyph><glyph glyph-name="Gcircumflex" unicode="Ĝ" d="M447 351h350c-15 -220 -170 -368 -387 -368c-225 0 -371 153 -371 351c0 223 181 402 408 402c131 0 244 -57 333 -172l-58 -43c-74 97 -175 148 -277 148c-174 0 -333 -148 -333 -333c0 -160 128 -286 290 -286c142 0 269 81 308 232h-263v69zM314 771l163 125h68 l124 -125h-89l-75 74l-100 -74h-91z"></glyph><glyph glyph-name="Gcommaaccent" unicode="Ģ" d="M447 351h350c-15 -220 -170 -368 -387 -368c-225 0 -371 153 -371 351c0 223 181 402 408 402c131 0 244 -57 333 -172l-58 -43c-74 97 -175 148 -277 148c-174 0 -333 -148 -333 -333c0 -160 128 -286 290 -286c142 0 269 81 308 232h-263v69zM325 -101l6 39 c15 5 30 7 46 7c51 0 77 -18 77 -53c0 -45 -44 -78 -112 -78c-21 0 -44 4 -71 11l11 35c22 -5 39 -7 50 -7c43 0 64 11 64 32c0 14 -12 21 -36 21c-9 0 -20 -2 -35 -7z"></glyph><glyph glyph-name="Gdotaccent" unicode="Ġ" d="M447 351h350c-15 -220 -170 -368 -387 -368c-225 0 -371 153 -371 351c0 223 181 402 408 402c131 0 244 -57 333 -172l-58 -43c-74 97 -175 148 -277 148c-174 0 -333 -148 -333 -333c0 -160 128 -286 290 -286c142 0 269 81 308 232h-263v69zM507 884 c30 0 49 -19 49 -57c0 -23 -28 -56 -64 -56c-29 0 -49 18 -49 56c0 23 29 57 64 57z"></glyph><glyph glyph-name="Hbar" unicode="Ħ" d="M670 538h-65l-71 -538h-70l47 358h-369l-47 -358h-72l72 538h-65l10 67h64l16 113h70l-15 -113h368l16 113h69l-14 -113h65zM520 426l15 112h-368l-15 -112h368z"></glyph><glyph glyph-name="Hcircumflex" unicode="Ĥ" d="M23 0l96 718h71l-39 -291h368l39 291h70l-94 -718h-70l47 358h-370l-46 -358h-72zM219 771l163 125h68l124 -125h-89l-75 74l-100 -74h-91z"></glyph><glyph glyph-name="Ibreve" unicode="Ĭ" d="M19 0l97 718h72l-96 -718h-73zM279 888h62c-22 -58 -87 -103 -185 -103c-95 0 -153 41 -161 103h64c18 -35 53 -51 104 -51c52 0 83 13 116 51z"></glyph><glyph glyph-name="IJ" unicode="Ĳ" d="M19 0l97 718h72l-96 -718h-73zM494 218l65 500h71l-65 -495c-11 -84 -21 -147 -55 -188c-28 -34 -72 -53 -122 -53c-65 0 -120 29 -173 86l55 40c38 -37 76 -59 119 -59c72 0 92 67 105 169z"></glyph><glyph glyph-name="Imacron" unicode="Ī" d="M19 0l97 718h72l-96 -718h-73zM-24 806l8 60h337l-8 -60h-337z"></glyph><glyph glyph-name="Iogonek" unicode="Į" d="M19 0l97 718h72l-96 -718h-10c-46 -35 -71 -68 -71 -93c0 -38 17 -55 62 -55c10 0 26 2 35 3l-11 -42c-14 -3 -29 -4 -42 -4c-69 0 -99 25 -99 87c0 28 28 76 73 104h-10z"></glyph><glyph glyph-name="Itilde" unicode="Ĩ" d="M19 0l97 718h72l-96 -718h-73zM225 845c28 0 53 13 78 26l27 -47c-37 -24 -70 -42 -116 -42c-63 0 -87 39 -133 39c-31 0 -55 -16 -82 -34l-25 50c34 31 74 47 116 47c57 0 89 -39 135 -39z"></glyph><glyph glyph-name="Jcircumflex" unicode="Ĵ" d="M267 218l65 500h71l-65 -495c-11 -84 -21 -147 -55 -188c-28 -34 -72 -53 -122 -53c-65 0 -120 29 -173 86l55 40c38 -37 76 -59 119 -59c72 0 92 67 105 169zM198 771l163 125h68l124 -125h-89l-75 74l-100 -74h-91z"></glyph><glyph glyph-name="Kcommaaccent" unicode="Ķ" d="M23 0l96 718h71l-39 -291l336 291h104l-390 -336l337 -382h-92l-305 347l-47 -347h-71zM185 -101l6 39c15 5 30 7 46 7c51 0 77 -18 77 -53c0 -45 -44 -78 -112 -78c-21 0 -44 4 -71 11l11 35c22 -5 39 -7 50 -7c43 0 64 11 64 32c0 14 -12 21 -36 21c-9 0 -20 -2 -35 -7 z"></glyph><glyph glyph-name="Lacute" unicode="Ĺ" d="M27 0l95 718h72l-86 -649h310l-8 -69h-383zM217 773l128 151h105l-166 -151h-67z"></glyph><glyph glyph-name="Lcaron" unicode="Ľ" d="M25 0l95 718h72l-86 -651h311l-9 -67h-383zM271 449l-35 22c18 29 30 50 35 63c6 13 11 30 15 49h-43l19 135h86l-6 -60c-5 -51 -13 -91 -24 -120c-10 -29 -26 -58 -47 -89z"></glyph><glyph glyph-name="Lcommaaccent" unicode="Ļ" d="M27 0l95 718h72l-86 -649h310l-8 -69h-383zM121 -101l6 39c15 5 30 7 46 7c51 0 77 -18 77 -53c0 -45 -44 -78 -112 -78c-21 0 -44 4 -71 11l11 35c22 -5 39 -7 50 -7c43 0 64 11 64 32c0 14 -12 21 -36 21c-9 0 -20 -2 -35 -7z"></glyph><glyph glyph-name="Ldot" unicode="Ŀ" d="M25 0l95 718h72l-86 -651h311l-9 -67h-383zM293 425c28 0 49 -21 49 -49c0 -33 -30 -64 -66 -64c-27 0 -48 21 -48 48c0 35 30 65 65 65z"></glyph><glyph glyph-name="Nacute" unicode="Ń" d="M542 161l75 557h71l-98 -718h-15l-404 557l-76 -557h-71l97 718h16zM355 773l128 151h105l-166 -151h-67z"></glyph><glyph glyph-name="Ncaron" unicode="Ň" d="M542 161l75 557h71l-98 -718h-15l-404 557l-76 -557h-71l97 718h16zM621 896l-163 -125h-68l-124 125h88l76 -74l100 74h91z"></glyph><glyph glyph-name="Ncommaaccent" unicode="Ņ" d="M542 161l75 557h71l-98 -718h-15l-404 557l-76 -557h-71l97 718h16zM259 -101l6 39c15 5 30 7 46 7c51 0 77 -18 77 -53c0 -45 -44 -78 -112 -78c-21 0 -44 4 -71 11l11 35c22 -5 39 -7 50 -7c43 0 64 11 64 32c0 14 -12 21 -36 21c-9 0 -20 -2 -35 -7z"></glyph><glyph glyph-name="Obreve" unicode="Ŏ" d="M466 736c186 0 339 -133 339 -336c0 -234 -181 -418 -428 -418c-212 0 -343 139 -343 336c0 236 181 418 432 418zM465 669c-216 0 -358 -162 -358 -349c0 -159 102 -271 269 -271c202 0 356 156 356 355c0 160 -118 265 -267 265zM618 888h62 c-22 -58 -87 -103 -185 -103c-95 0 -153 41 -161 103h64c18 -35 53 -51 104 -51c52 0 83 13 116 51z"></glyph><glyph glyph-name="Ohungarumlaut" unicode="Ő" d="M466 736c186 0 339 -133 339 -336c0 -234 -181 -418 -428 -418c-212 0 -343 139 -343 336c0 236 181 418 432 418zM465 669c-216 0 -358 -162 -358 -349c0 -159 102 -271 269 -271c202 0 356 156 356 355c0 160 -118 265 -267 265zM343 773l128 151h105l-166 -151h-67z M497 773l128 151h105l-165 -151h-68z"></glyph><glyph glyph-name="Omacron" unicode="Ō" d="M466 736c186 0 339 -133 339 -336c0 -234 -181 -418 -428 -418c-212 0 -343 139 -343 336c0 236 181 418 432 418zM465 669c-216 0 -358 -162 -358 -349c0 -159 102 -271 269 -271c202 0 356 156 356 355c0 160 -118 265 -267 265zM327 806l8 60h337l-8 -60h-337z"></glyph><glyph glyph-name="Oslashacute" unicode="Ǿ" d="M772 703l-59 -68c62 -63 92 -139 92 -235c0 -234 -181 -418 -428 -418c-74 0 -138 15 -194 49l-64 -74l-48 43l62 71c-63 61 -99 147 -99 247c0 236 181 418 432 418c72 0 139 -19 197 -58l59 67zM667 583l-436 -498c43 -24 92 -36 145 -36c202 0 356 156 356 355 c0 71 -21 130 -65 179zM179 124l439 501c-41 27 -98 44 -153 44c-216 0 -358 -162 -358 -349c0 -77 26 -147 72 -196zM419 773l128 151h105l-166 -151h-67z"></glyph><glyph glyph-name="Racute" unicode="Ŕ" d="M38 0l98 718h197c58 0 105 -4 148 -35c42 -30 66 -78 66 -135c0 -59 -27 -119 -70 -155c-45 -38 -105 -53 -183 -53l217 -340h-81l-216 341h-57l-47 -341h-72zM338 649h-139l-33 -239h83c25 0 57 2 89 3c78 3 136 59 136 135c0 71 -45 101 -136 101zM289 773l128 151h105 l-166 -151h-67z"></glyph><glyph glyph-name="Rcaron" unicode="Ř" d="M38 0l98 718h197c58 0 105 -4 148 -35c42 -30 66 -78 66 -135c0 -59 -27 -119 -70 -155c-45 -38 -105 -53 -183 -53l217 -340h-81l-216 341h-57l-47 -341h-72zM338 649h-139l-33 -239h83c25 0 57 2 89 3c78 3 136 59 136 135c0 71 -45 101 -136 101zM524 896l-163 -125 h-68l-124 125h88l76 -74l100 74h91z"></glyph><glyph glyph-name="Rcommaaccent" unicode="Ŗ" d="M38 0l98 718h197c58 0 105 -4 148 -35c42 -30 66 -78 66 -135c0 -59 -27 -119 -70 -155c-45 -38 -105 -53 -183 -53l217 -340h-81l-216 341h-57l-47 -341h-72zM338 649h-139l-33 -239h83c25 0 57 2 89 3c78 3 136 59 136 135c0 71 -45 101 -136 101zM193 -101l6 39 c15 5 30 7 46 7c51 0 77 -18 77 -53c0 -45 -44 -78 -112 -78c-21 0 -44 4 -71 11l11 35c22 -5 39 -7 50 -7c43 0 64 11 64 32c0 14 -12 21 -36 21c-9 0 -20 -2 -35 -7z"></glyph><glyph glyph-name="Sacute" unicode="Ś" d="M7 155l67 22c21 -88 71 -127 131 -127c67 0 129 55 129 134c0 85 -53 125 -164 233c-35 34 -61 95 -61 150c0 103 78 169 168 169c79 0 145 -49 175 -150l-67 -18c-18 60 -63 101 -113 101c-55 0 -90 -44 -90 -102c0 -39 21 -86 51 -114c114 -104 174 -172 174 -266 c0 -108 -92 -204 -208 -204c-93 0 -163 60 -192 172zM234 773l128 151h105l-166 -151h-67z"></glyph><glyph glyph-name="uni015E" unicode="Ş" d="M156 -99l22 83c-82 9 -144 67 -171 171l67 22c21 -88 71 -127 131 -127c67 0 129 55 129 134c0 85 -53 125 -164 233c-35 34 -61 95 -61 150c0 103 78 169 168 169c79 0 145 -49 175 -150l-67 -18c-18 60 -63 101 -113 101c-55 0 -90 -44 -90 -102c0 -39 21 -86 51 -114 c114 -104 174 -172 174 -266c0 -101 -81 -191 -186 -203l-12 -42c7 1 12 2 19 2c33 0 49 -17 49 -52c0 -29 -40 -78 -123 -78c-27 0 -54 5 -79 15l15 34c17 -6 39 -10 58 -10c49 0 70 17 70 32s-12 21 -28 21c-11 0 -25 -3 -34 -5z"></glyph><glyph glyph-name="Scircumflex" unicode="Ŝ" d="M7 155l67 22c21 -88 71 -127 131 -127c67 0 129 55 129 134c0 85 -53 125 -164 233c-35 34 -61 95 -61 150c0 103 78 169 168 169c79 0 145 -49 175 -150l-67 -18c-18 60 -63 101 -113 101c-55 0 -90 -44 -90 -102c0 -39 21 -86 51 -114c114 -104 174 -172 174 -266 c0 -108 -92 -204 -208 -204c-93 0 -163 60 -192 172zM127 771l163 125h68l124 -125h-89l-75 74l-100 -74h-91z"></glyph><glyph glyph-name="uni0218" unicode="Ș" d="M7 155l67 22c21 -88 71 -127 131 -127c67 0 129 55 129 134c0 85 -53 125 -164 233c-35 34 -61 95 -61 150c0 103 78 169 168 169c79 0 145 -49 175 -150l-67 -18c-18 60 -63 101 -113 101c-55 0 -90 -44 -90 -102c0 -39 21 -86 51 -114c114 -104 174 -172 174 -266 c0 -108 -92 -204 -208 -204c-93 0 -163 60 -192 172zM92 -101l6 39c15 5 30 7 46 7c51 0 77 -18 77 -53c0 -45 -44 -78 -112 -78c-21 0 -44 4 -71 11l11 35c22 -5 39 -7 50 -7c43 0 64 11 64 32c0 14 -12 21 -36 21c-9 0 -20 -2 -35 -7z"></glyph><glyph glyph-name="Tbar" unicode="Ŧ" d="M115 0l41 312h-137l9 67h137l36 271h-175l10 68h429l-9 -68h-184l-36 -271h139l-9 -67h-138l-42 -312h-71z"></glyph><glyph glyph-name="Tcaron" unicode="Ť" d="M27 649l9 69h429l-9 -69h-183l-86 -649h-72l86 649h-174zM464 896l-163 -125h-68l-124 125h88l76 -74l100 74h91z"></glyph><glyph glyph-name="Tcommaaccent" unicode="Ţ" d="M27 649l9 69h429l-9 -69h-183l-86 -649h-72l86 649h-174zM92 -101l6 39c15 5 30 7 46 7c51 0 77 -18 77 -53c0 -45 -44 -78 -112 -78c-21 0 -44 4 -71 11l11 35c22 -5 39 -7 50 -7c43 0 64 11 64 32c0 14 -12 21 -36 21c-9 0 -20 -2 -35 -7z"></glyph><glyph glyph-name="Ubreve" unicode="Ŭ" d="M61 318l52 400h71l-54 -411c-4 -31 -10 -70 -10 -114c0 -95 53 -143 147 -143c57 0 108 19 141 53c51 51 67 139 83 268l44 347h71l-48 -362c-7 -50 -11 -113 -32 -181c-40 -131 -120 -192 -258 -192c-140 0 -221 75 -221 198c0 49 9 96 14 137zM511 888h62 c-22 -58 -87 -103 -185 -103c-95 0 -153 41 -161 103h64c18 -35 53 -51 104 -51c52 0 83 13 116 51z"></glyph><glyph glyph-name="Uhungarumlaut" unicode="Ű" d="M61 318l52 400h71l-54 -411c-4 -31 -10 -70 -10 -114c0 -95 53 -143 147 -143c57 0 108 19 141 53c51 51 67 139 83 268l44 347h71l-48 -362c-7 -50 -11 -113 -32 -181c-40 -131 -120 -192 -258 -192c-140 0 -221 75 -221 198c0 49 9 96 14 137zM236 773l128 151h105 l-166 -151h-67zM390 773l128 151h105l-165 -151h-68z"></glyph><glyph glyph-name="Umacron" unicode="Ū" d="M61 318l52 400h71l-54 -411c-4 -31 -10 -70 -10 -114c0 -95 53 -143 147 -143c57 0 108 19 141 53c51 51 67 139 83 268l44 347h71l-48 -362c-7 -50 -11 -113 -32 -181c-40 -131 -120 -192 -258 -192c-140 0 -221 75 -221 198c0 49 9 96 14 137zM220 806l8 60h337l-8 -60 h-337z"></glyph><glyph glyph-name="Uogonek" unicode="Ų" d="M349 -145l-11 -42c-14 -3 -29 -4 -42 -4c-69 0 -99 25 -99 87c0 23 19 60 51 88c-128 7 -201 80 -201 197c0 49 9 96 14 137l52 400h71l-54 -411c-4 -31 -10 -70 -10 -114c0 -95 53 -143 147 -143c57 0 108 19 141 53c51 51 67 139 83 268l44 347h71l-48 -362 c-7 -50 -11 -113 -32 -181c-37 -120 -106 -180 -223 -190c-33 -29 -51 -57 -51 -78c0 -38 17 -55 62 -55c10 0 26 2 35 3z"></glyph><glyph glyph-name="Uring" unicode="Ů" d="M61 318l52 400h71l-54 -411c-4 -31 -10 -70 -10 -114c0 -95 53 -143 147 -143c57 0 108 19 141 53c51 51 67 139 83 268l44 347h71l-48 -362c-7 -50 -11 -113 -32 -181c-40 -131 -120 -192 -258 -192c-140 0 -221 75 -221 198c0 49 9 96 14 137zM395 958 c56 0 101 -44 101 -101c0 -56 -45 -102 -101 -102s-102 46 -102 102s45 101 102 101zM395 916c-34 1 -59 -26 -59 -59c0 -34 28 -59 59 -59c33 0 59 27 59 59c1 33 -27 59 -59 59z"></glyph><glyph glyph-name="Utilde" unicode="Ũ" d="M61 318l52 400h71l-54 -411c-4 -31 -10 -70 -10 -114c0 -95 53 -143 147 -143c57 0 108 19 141 53c51 51 67 139 83 268l44 347h71l-48 -362c-7 -50 -11 -113 -32 -181c-40 -131 -120 -192 -258 -192c-140 0 -221 75 -221 198c0 49 9 96 14 137zM465 845 c28 0 53 13 78 26l27 -47c-37 -24 -70 -42 -116 -42c-63 0 -87 39 -133 39c-31 0 -55 -16 -82 -34l-25 50c34 31 74 47 116 47c57 0 89 -39 135 -39z"></glyph><glyph glyph-name="Wacute" unicode="Ẃ" d="M195 0l-134 718h70l99 -533l278 533h14l126 -533l253 533h76l-343 -718h-13l-127 541l-285 -541h-14zM465 773l128 151h105l-166 -151h-67z"></glyph><glyph glyph-name="Wcircumflex" unicode="Ŵ" d="M195 0l-134 718h70l99 -533l278 533h14l126 -533l253 533h76l-343 -718h-13l-127 541l-285 -541h-14zM331 771l163 125h68l124 -125h-89l-75 74l-100 -74h-91z"></glyph><glyph glyph-name="Wdieresis" unicode="Ẅ" d="M195 0l-134 718h70l99 -533l278 533h14l126 -533l253 533h76l-343 -718h-13l-127 541l-285 -541h-14zM451 884c30 0 49 -19 49 -57c0 -23 -28 -56 -64 -56c-29 0 -49 18 -49 56c0 23 29 57 64 57zM651 884c30 0 48 -19 48 -57c0 -22 -28 -56 -64 -56c-30 0 -49 18 -49 56 c0 22 29 57 65 57z"></glyph><glyph glyph-name="Wgrave" unicode="Ẁ" d="M195 0l-134 718h70l99 -533l278 533h14l126 -533l253 533h76l-343 -718h-13l-127 541l-285 -541h-14zM417 924h105l85 -151h-67z"></glyph><glyph glyph-name="Ycircumflex" unicode="Ŷ" d="M228 322l-187 396h75l154 -326l259 326h87l-318 -400l-44 -318h-70zM174 771l163 125h68l124 -125h-89l-75 74l-100 -74h-91z"></glyph><glyph glyph-name="Ygrave" unicode="Ỳ" d="M228 322l-187 396h75l154 -326l259 326h87l-318 -400l-44 -318h-70zM233 924h105l85 -151h-67z"></glyph><glyph glyph-name="Zacute" unicode="Ź" d="M97 649l10 69h369l-353 -649h269l-9 -69h-376l354 649h-264zM225 773l128 151h105l-166 -151h-67z"></glyph><glyph glyph-name="Zdotaccent" unicode="Ż" d="M97 649l10 69h369l-353 -649h269l-9 -69h-376l354 649h-264zM311 884c30 0 49 -19 49 -57c0 -23 -28 -56 -64 -56c-29 0 -49 18 -49 56c0 23 29 57 64 57z"></glyph><glyph glyph-name="Idotaccent" unicode="İ" d="M19 0l97 718h72l-96 -718h-73zM184 884c30 0 49 -19 49 -57c0 -23 -28 -56 -64 -56c-29 0 -49 18 -49 56c0 23 29 57 64 57z"></glyph><glyph glyph-name="abreve" unicode="ă" d="M535 430l12 101h71l-71 -531h-69l10 80c-61 -62 -131 -94 -211 -94c-145 0 -248 103 -248 250c0 176 146 309 304 309c93 0 156 -39 202 -115zM285 49c140 0 237 108 237 246c0 114 -80 187 -188 187c-128 0 -237 -104 -237 -245c0 -116 79 -188 188 -188zM505 745h62 c-22 -58 -87 -103 -185 -103c-95 0 -153 41 -161 103h64c18 -35 53 -51 104 -51c52 0 83 13 116 51z"></glyph><glyph glyph-name="amacron" unicode="ā" d="M535 430l12 101h71l-71 -531h-69l10 80c-61 -62 -131 -94 -211 -94c-145 0 -248 103 -248 250c0 176 146 309 304 309c93 0 156 -39 202 -115zM285 49c140 0 237 108 237 246c0 114 -80 187 -188 187c-128 0 -237 -104 -237 -245c0 -116 79 -188 188 -188zM214 663l8 60 h337l-8 -60h-337z"></glyph><glyph glyph-name="aogonek" unicode="ą" d="M566 -145l-11 -42c-14 -3 -29 -4 -42 -4c-69 0 -99 25 -99 87c0 28 28 76 73 104h-9l10 80c-61 -62 -131 -94 -211 -94c-145 0 -248 103 -248 250c0 176 146 309 304 309c93 0 156 -39 202 -115l12 101h71l-71 -531h-7c-46 -35 -71 -68 -71 -93c0 -38 17 -55 62 -55 c10 0 26 2 35 3zM285 49c140 0 237 108 237 246c0 114 -80 187 -188 187c-128 0 -237 -104 -237 -245c0 -116 79 -188 188 -188z"></glyph><glyph glyph-name="aeacute" unicode="ǽ" d="M490 0l10 83c-65 -65 -133 -96 -223 -96c-155 0 -249 111 -249 254c0 167 138 304 305 304c98 0 160 -38 213 -120l15 106h61l-11 -87c59 67 135 101 222 101c140 0 247 -96 247 -246c0 -16 -2 -34 -4 -48h-481c-1 -8 -1 -12 -1 -21c0 -99 74 -180 193 -180 c73 0 134 28 183 84l52 -38c-59 -73 -139 -109 -242 -109c-100 0 -167 34 -216 111l-13 -98h-61zM333 482c-141 0 -237 -113 -237 -244c0 -114 78 -188 193 -188c142 0 241 113 241 237c0 105 -75 195 -197 195zM608 311h408c-3 99 -72 171 -183 171 c-109 0 -193 -65 -225 -171zM544 630l128 151h105l-166 -151h-67z"></glyph><glyph glyph-name="cacute" unicode="ć" d="M498 137l56 -40c-69 -76 -150 -111 -258 -111c-170 0 -267 103 -267 252c0 172 141 307 320 307c106 0 192 -47 236 -128l-57 -33c-39 62 -101 94 -180 94c-148 0 -251 -105 -251 -236c0 -114 74 -193 196 -193c81 0 162 36 205 88zM311 630l128 151h105l-166 -151h-67z "></glyph><glyph glyph-name="ccaron" unicode="č" d="M498 137l56 -40c-69 -76 -150 -111 -258 -111c-170 0 -267 103 -267 252c0 172 141 307 320 307c106 0 192 -47 236 -128l-57 -33c-39 62 -101 94 -180 94c-148 0 -251 -105 -251 -236c0 -114 74 -193 196 -193c81 0 162 36 205 88zM576 753l-163 -125h-68l-124 125h88 l76 -74l100 74h91z"></glyph><glyph glyph-name="ccircumflex" unicode="ĉ" d="M498 137l56 -40c-69 -76 -150 -111 -258 -111c-170 0 -267 103 -267 252c0 172 141 307 320 307c106 0 192 -47 236 -128l-57 -33c-39 62 -101 94 -180 94c-148 0 -251 -105 -251 -236c0 -114 74 -193 196 -193c81 0 162 36 205 88zM203 628l163 125h68l124 -125h-89 l-75 74l-100 -74h-91z"></glyph><glyph glyph-name="cdotaccent" unicode="ċ" d="M498 137l56 -40c-69 -76 -150 -111 -258 -111c-170 0 -267 103 -267 252c0 172 141 307 320 307c106 0 192 -47 236 -128l-57 -33c-39 62 -101 94 -180 94c-148 0 -251 -105 -251 -236c0 -114 74 -193 196 -193c81 0 162 36 205 88zM396 741c30 0 49 -19 49 -57 c0 -23 -28 -56 -64 -56c-29 0 -49 18 -49 56c0 23 29 57 64 57z"></glyph><glyph glyph-name="dcaron" unicode="ď" d="M646 736l-98 -736h-69l11 80c-62 -63 -133 -94 -212 -94c-67 0 -126 22 -175 66c-49 45 -73 106 -73 184c-4 171 149 310 304 309c92 0 159 -38 202 -115l40 306h70zM286 49c69 0 126 24 170 71c45 47 67 106 67 175c0 57 -18 102 -54 135c-35 34 -80 51 -134 51 c-63 0 -119 -23 -166 -70c-47 -46 -71 -104 -71 -174c0 -58 18 -104 53 -138c36 -33 81 -50 135 -50zM691 508l-29 18c23 37 37 69 42 96h-37l16 114h73l-5 -51c-4 -45 -11 -80 -20 -105s-23 -49 -40 -72z"></glyph><glyph glyph-name="dcroat" unicode="đ" d="M536 430l23 178h-201l10 65h199l9 63h70l-8 -63h70l-9 -65h-70l-81 -608h-69l11 80c-62 -63 -133 -94 -212 -94c-72 0 -131 23 -178 70s-70 107 -70 180c0 85 30 157 90 218c61 61 132 91 214 91c88 0 154 -36 202 -115zM286 49c131 -5 239 108 237 246 c0 55 -17 100 -52 134c-35 35 -80 52 -136 52c-65 0 -121 -24 -168 -71c-46 -47 -69 -104 -69 -173c0 -57 17 -102 52 -137c35 -34 80 -51 136 -51z"></glyph><glyph glyph-name="ebreve" unicode="ĕ" d="M464 136l51 -41c-52 -65 -137 -109 -236 -109c-160 0 -250 115 -250 252c0 162 133 308 309 308c142 0 236 -109 236 -246c0 -14 -2 -34 -4 -48h-473v-14c0 -110 72 -189 184 -189c74 0 141 31 183 87zM108 312h400c-4 102 -77 167 -174 167c-102 0 -191 -59 -226 -167z M488 745h62c-22 -58 -87 -103 -185 -103c-95 0 -153 41 -161 103h64c18 -35 53 -51 104 -51c52 0 83 13 116 51z"></glyph><glyph glyph-name="ecaron" unicode="ě" d="M464 136l51 -41c-52 -65 -137 -109 -236 -109c-160 0 -250 115 -250 252c0 162 133 308 309 308c142 0 236 -109 236 -246c0 -14 -2 -34 -4 -48h-473v-14c0 -110 72 -189 184 -189c74 0 141 31 183 87zM108 312h400c-4 102 -77 167 -174 167c-102 0 -191 -59 -226 -167z M556 753l-163 -125h-68l-124 125h88l76 -74l100 74h91z"></glyph><glyph glyph-name="edotaccent" unicode="ė" d="M464 136l51 -41c-52 -65 -137 -109 -236 -109c-160 0 -250 115 -250 252c0 162 133 308 309 308c142 0 236 -109 236 -246c0 -14 -2 -34 -4 -48h-473v-14c0 -110 72 -189 184 -189c74 0 141 31 183 87zM108 312h400c-4 102 -77 167 -174 167c-102 0 -191 -59 -226 -167z M376 741c30 0 49 -19 49 -57c0 -23 -28 -56 -64 -56c-29 0 -49 18 -49 56c0 23 29 57 64 57z"></glyph><glyph glyph-name="emacron" unicode="ē" d="M464 136l51 -41c-52 -65 -137 -109 -236 -109c-160 0 -250 115 -250 252c0 162 133 308 309 308c142 0 236 -109 236 -246c0 -14 -2 -34 -4 -48h-473v-14c0 -110 72 -189 184 -189c74 0 141 31 183 87zM108 312h400c-4 102 -77 167 -174 167c-102 0 -191 -59 -226 -167z M197 663l8 60h337l-8 -60h-337z"></glyph><glyph glyph-name="eng" unicode="ŋ" d="M302 -194l8 58c11 -7 23 -11 35 -11c28 0 46 31 55 92l39 292c8 56 12 97 12 122c0 72 -47 124 -122 124c-41 0 -77 -11 -109 -33c-31 -22 -54 -49 -68 -82c-14 -32 -25 -78 -33 -139l-32 -229h-67l74 531h65l-10 -81c53 63 116 95 187 95c52 0 95 -16 130 -49 c35 -32 53 -77 53 -134c0 -28 -4 -71 -12 -128l-37 -268c-11 -78 -26 -126 -46 -145c-19 -19 -40 -29 -63 -29c-19 0 -38 5 -59 14z"></glyph><glyph glyph-name="eogonek" unicode="ę" d="M393 -145l-11 -42c-14 -3 -29 -4 -42 -4c-69 0 -99 25 -99 87c0 24 20 63 54 91c-5 -1 -11 -1 -16 -1c-160 0 -250 115 -250 252c0 162 133 308 309 308c142 0 236 -109 236 -246c0 -14 -2 -34 -4 -48h-473v-14c0 -110 72 -189 184 -189c74 0 141 31 183 87l51 -41 c-37 -46 -90 -81 -152 -98c-44 -34 -67 -65 -67 -90c0 -38 17 -55 62 -55c10 0 26 2 35 3zM108 312h400c-4 102 -77 167 -174 167c-102 0 -191 -59 -226 -167z"></glyph><glyph glyph-name="gbreve" unicode="ğ" d="M531 430l13 101h67l-61 -449c-12 -89 -23 -159 -84 -217c-47 -45 -123 -73 -206 -73c-118 0 -204 48 -249 143l61 21c36 -66 102 -101 187 -101c111 0 193 61 206 131c6 30 12 61 16 87l3 21c-58 -63 -128 -94 -211 -94c-152 0 -244 105 -244 242c0 170 150 303 299 303 c88 0 153 -39 203 -115zM341 482c-135 0 -244 -102 -244 -243c0 -107 73 -176 183 -176c134 0 236 99 236 235c0 115 -83 184 -175 184zM500 745h62c-22 -58 -87 -103 -185 -103c-95 0 -153 41 -161 103h64c18 -35 53 -51 104 -51c52 0 83 13 116 51z"></glyph><glyph glyph-name="gcircumflex" unicode="ĝ" d="M531 430l13 101h67l-61 -449c-12 -89 -23 -159 -84 -217c-47 -45 -123 -73 -206 -73c-118 0 -204 48 -249 143l61 21c36 -66 102 -101 187 -101c111 0 193 61 206 131c6 30 12 61 16 87l3 21c-58 -63 -128 -94 -211 -94c-152 0 -244 105 -244 242c0 170 150 303 299 303 c88 0 153 -39 203 -115zM341 482c-135 0 -244 -102 -244 -243c0 -107 73 -176 183 -176c134 0 236 99 236 235c0 115 -83 184 -175 184zM194 628l163 125h68l124 -125h-89l-75 74l-100 -74h-91z"></glyph><glyph glyph-name="gcommaaccent" unicode="ģ" d="M531 430l13 101h67l-61 -449c-12 -89 -23 -159 -84 -217c-47 -45 -123 -73 -206 -73c-118 0 -204 48 -249 143l61 21c36 -66 102 -101 187 -101c111 0 193 61 206 131c6 30 12 61 16 87l3 21c-58 -63 -128 -94 -211 -94c-152 0 -244 105 -244 242c0 170 150 303 299 303 c88 0 153 -39 203 -115zM341 482c-135 0 -244 -102 -244 -243c0 -107 73 -176 183 -176c134 0 236 99 236 235c0 115 -83 184 -175 184zM467 768l-98 -147l-50 23l111 139z"></glyph><glyph glyph-name="gdotaccent" unicode="ġ" d="M531 430l13 101h67l-61 -449c-12 -89 -23 -159 -84 -217c-47 -45 -123 -73 -206 -73c-118 0 -204 48 -249 143l61 21c36 -66 102 -101 187 -101c111 0 193 61 206 131c6 30 12 61 16 87l3 21c-58 -63 -128 -94 -211 -94c-152 0 -244 105 -244 242c0 170 150 303 299 303 c88 0 153 -39 203 -115zM341 482c-135 0 -244 -102 -244 -243c0 -107 73 -176 183 -176c134 0 236 99 236 235c0 115 -83 184 -175 184zM387 741c30 0 49 -19 49 -57c0 -23 -28 -56 -64 -56c-29 0 -49 18 -49 56c0 23 29 57 64 57z"></glyph><glyph glyph-name="hbar" unicode="ħ" d="M20 0l83 605h-76l8 57h76l10 74h66l-10 -74h183l-7 -57h-184l-21 -154c55 63 117 94 188 94c51 0 94 -16 129 -48c36 -32 54 -75 54 -130c0 -31 -4 -72 -11 -123l-33 -244h-68l33 244c7 49 11 88 11 117c0 72 -49 122 -124 122c-33 0 -65 -9 -95 -26s-54 -41 -72 -72 s-32 -83 -42 -155l-32 -230h-66z"></glyph><glyph glyph-name="hcircumflex" unicode="ĥ" d="M19 0l101 736h68l-39 -285c54 62 116 95 188 95c100 0 182 -67 182 -184c0 -47 -7 -86 -11 -118l-33 -244h-67l33 244c6 42 10 82 10 115c0 76 -49 124 -123 124c-66 0 -129 -34 -163 -90c-24 -39 -37 -95 -46 -163l-32 -230h-68zM-11 780l163 125h68l124 -125h-89 l-75 74l-100 -74h-91z"></glyph><glyph glyph-name="ibreve" unicode="ĭ" d="M7 0l73 531h65l-71 -531h-67zM251 745h62c-22 -58 -87 -103 -185 -103c-95 0 -153 41 -161 103h64c18 -35 53 -51 104 -51c52 0 83 13 116 51z"></glyph><glyph glyph-name="ij" unicode="ĳ" d="M134 750c30 0 55 -25 55 -55c0 -31 -25 -55 -55 -55s-55 25 -55 55s24 55 55 55zM7 0l73 531h65l-71 -531h-67zM202 -55l81 586h67l-78 -565c-15 -109 -39 -175 -110 -175c-20 0 -41 8 -58 15l8 58c8 -5 20 -10 35 -10c31 0 46 28 55 91zM337 750c30 0 55 -25 55 -55 c0 -31 -25 -55 -55 -55s-55 25 -55 55s24 55 55 55z"></glyph><glyph glyph-name="imacron" unicode="ī" d="M7 0l73 531h65l-71 -531h-67zM-50 663l8 60h337l-8 -60h-337z"></glyph><glyph glyph-name="iogonek" unicode="į" d="M7 0l73 531h65l-71 -531h-8c-46 -35 -71 -68 -71 -93c0 -38 17 -55 62 -55c10 0 26 2 35 3l-11 -42c-14 -3 -29 -4 -42 -4c-69 0 -99 25 -99 87c0 28 28 76 73 104h-6zM134 750c30 0 55 -25 55 -55c0 -31 -25 -55 -55 -55s-55 25 -55 55s24 55 55 55z"></glyph><glyph glyph-name="itilde" unicode="ĩ" d="M7 0l73 531h65l-71 -531h-67zM183 702c28 0 53 13 78 26l27 -47c-37 -24 -70 -42 -116 -42c-63 0 -87 39 -133 39c-31 0 -55 -16 -82 -34l-25 50c34 31 74 47 116 47c57 0 89 -39 135 -39z"></glyph><glyph glyph-name="jcircumflex" unicode="ĵ" d="M2 -55l81 586h67l-78 -565c-15 -109 -39 -175 -110 -175c-20 0 -41 8 -58 15l8 58c8 -5 20 -10 35 -10c31 0 46 28 55 91zM-60 628l163 125h68l124 -125h-89l-75 74l-100 -74h-91z"></glyph><glyph glyph-name="kcommaaccent" unicode="ķ" d="M19 0l104 736h67l-57 -401l256 196h106l-308 -237l272 -294h-91l-245 264l-36 -264h-68zM140 -101l6 39c15 5 30 7 46 7c51 0 77 -18 77 -53c0 -45 -44 -78 -112 -78c-21 0 -44 4 -71 11l11 35c22 -5 39 -7 50 -7c43 0 64 11 64 32c0 14 -12 21 -36 21 c-9 0 -20 -2 -35 -7z"></glyph><glyph glyph-name="lacute" unicode="ĺ" d="M7 0l103 736h67l-102 -736h-68zM87 791l128 151h105l-166 -151h-67z"></glyph><glyph glyph-name="lcaron" unicode="ľ" d="M7 0l103 736h67l-103 -736h-67zM221 508l-30 18c24 37 38 69 43 96h-37l16 114h74l-6 -51c-5 -45 -12 -80 -21 -105s-22 -49 -39 -72z"></glyph><glyph glyph-name="lcommaaccent" unicode="ļ" d="M7 0l103 736h67l-102 -736h-68zM-23 -101l6 39c15 5 30 7 46 7c51 0 77 -18 77 -53c0 -45 -44 -78 -112 -78c-21 0 -44 4 -71 11l11 35c22 -5 39 -7 50 -7c43 0 64 11 64 32c0 14 -12 21 -36 21c-9 0 -20 -2 -35 -7z"></glyph><glyph glyph-name="ldot" unicode="ŀ" d="M7 0l103 736h67l-103 -736h-67zM230 425c28 0 50 -21 50 -49c0 -33 -31 -64 -66 -64c-28 0 -48 21 -48 48c0 35 31 65 64 65z"></glyph><glyph glyph-name="nacute" unicode="ń" d="M159 531l-10 -81c54 63 116 95 188 95c105 0 182 -69 182 -183c0 -51 -7 -91 -11 -118l-33 -244h-67l33 244c4 33 10 72 10 114c0 75 -47 124 -122 124c-67 0 -129 -33 -164 -88c-25 -39 -36 -95 -46 -164l-32 -230h-67l74 531h65zM270 630l128 151h105l-166 -151h-67z "></glyph><glyph glyph-name="ncaron" unicode="ň" d="M159 531l-10 -81c54 63 116 95 188 95c105 0 182 -69 182 -183c0 -51 -7 -91 -11 -118l-33 -244h-67l33 244c4 33 10 72 10 114c0 75 -47 124 -122 124c-67 0 -129 -33 -164 -88c-25 -39 -36 -95 -46 -164l-32 -230h-67l74 531h65zM536 753l-163 -125h-68l-124 125h88 l76 -74l100 74h91z"></glyph><glyph glyph-name="ncommaaccent" unicode="ņ" d="M159 531l-10 -81c54 63 116 95 188 95c105 0 182 -69 182 -183c0 -51 -7 -91 -11 -118l-33 -244h-67l33 244c4 33 10 72 10 114c0 75 -47 124 -122 124c-67 0 -129 -33 -164 -88c-25 -39 -36 -95 -46 -164l-32 -230h-67l74 531h65zM194 -101l6 39c15 5 30 7 46 7 c51 0 77 -18 77 -53c0 -45 -44 -78 -112 -78c-21 0 -44 4 -71 11l11 35c22 -5 39 -7 50 -7c43 0 64 11 64 32c0 14 -12 21 -36 21c-9 0 -20 -2 -35 -7z"></glyph><glyph glyph-name="obreve" unicode="ŏ" d="M332 545c138 0 245 -103 245 -254c0 -167 -123 -304 -305 -304c-147 0 -245 105 -245 248c0 174 134 310 305 310zM330 482c-131 0 -235 -102 -235 -243c0 -110 74 -189 186 -189c137 0 228 110 228 242c0 114 -77 190 -179 190zM491 745h62c-22 -58 -87 -103 -185 -103 c-95 0 -153 41 -161 103h64c18 -35 53 -51 104 -51c52 0 83 13 116 51z"></glyph><glyph glyph-name="ohungarumlaut" unicode="ő" d="M332 545c138 0 245 -103 245 -254c0 -167 -123 -304 -305 -304c-147 0 -245 105 -245 248c0 174 134 310 305 310zM330 482c-131 0 -235 -102 -235 -243c0 -110 74 -189 186 -189c137 0 228 110 228 242c0 114 -77 190 -179 190zM216 630l128 151h105l-166 -151h-67z M370 630l128 151h105l-165 -151h-68z"></glyph><glyph glyph-name="omacron" unicode="ō" d="M332 545c138 0 245 -103 245 -254c0 -167 -123 -304 -305 -304c-147 0 -245 105 -245 248c0 174 134 310 305 310zM330 482c-131 0 -235 -102 -235 -243c0 -110 74 -189 186 -189c137 0 228 110 228 242c0 114 -77 190 -179 190zM200 663l8 60h337l-8 -60h-337z"></glyph><glyph glyph-name="oslashacute" unicode="ǿ" d="M585 527l-63 -72c35 -47 54 -102 54 -164c0 -167 -124 -304 -304 -304c-49 0 -92 10 -129 32l-63 -73l-50 42l62 71c-45 49 -66 106 -66 176c0 177 138 310 301 310c56 0 111 -17 149 -45l59 68zM478 404l-290 -333c29 -15 59 -21 92 -21c137 0 228 110 228 242 c0 41 -9 78 -30 112zM137 111l295 339c-29 19 -68 32 -107 32c-123 0 -231 -100 -231 -243c0 -49 14 -93 43 -128zM292 630l128 151h105l-166 -151h-67z"></glyph><glyph glyph-name="racute" unicode="ŕ" d="M133 531l-9 -66c37 51 90 80 145 80c28 0 47 -8 61 -14l-33 -62c-10 4 -25 9 -42 9c-35 0 -71 -18 -98 -50c-40 -48 -54 -115 -66 -203l-31 -225h-67l72 531h68zM128 630l128 151h105l-166 -151h-67z"></glyph><glyph glyph-name="rcaron" unicode="ř" d="M133 531l-9 -66c37 51 90 80 145 80c28 0 47 -8 61 -14l-33 -62c-10 4 -25 9 -42 9c-35 0 -71 -18 -98 -50c-40 -48 -54 -115 -66 -203l-31 -225h-67l72 531h68zM403 753l-163 -125h-68l-124 125h88l76 -74l100 74h91z"></glyph><glyph glyph-name="rcommaaccent" unicode="ŗ" d="M133 531l-9 -66c37 51 90 80 145 80c28 0 47 -8 61 -14l-33 -62c-10 4 -25 9 -42 9c-35 0 -71 -18 -98 -50c-40 -48 -54 -115 -66 -203l-31 -225h-67l72 531h68zM-27 -101l6 39c15 5 30 7 46 7c51 0 77 -18 77 -53c0 -45 -44 -78 -112 -78c-21 0 -44 4 -71 11l11 35 c22 -5 39 -7 50 -7c43 0 64 11 64 32c0 14 -12 21 -36 21c-9 0 -20 -2 -35 -7z"></glyph><glyph glyph-name="sacute" unicode="ś" d="M-17 74l41 48c40 -48 84 -72 128 -72c48 0 98 39 98 93c0 29 -15 58 -42 77c-108 77 -165 108 -165 183c0 80 70 142 158 142c66 0 103 -31 138 -73l-37 -56c-29 41 -63 66 -106 66c-50 0 -85 -41 -85 -76c0 -24 17 -50 46 -69c96 -63 161 -102 161 -196 c0 -92 -73 -154 -169 -154c-64 0 -122 31 -166 87zM159 630l128 151h105l-166 -151h-67z"></glyph><glyph glyph-name="uni015F" unicode="ş" d="M101 -99l24 88c-55 6 -104 36 -142 85l41 48c40 -48 84 -72 128 -72c48 0 98 39 98 93c0 29 -15 58 -42 77c-108 77 -165 108 -165 183c0 80 70 142 158 142c66 0 103 -31 138 -73l-37 -56c-29 41 -63 66 -106 66c-50 0 -85 -41 -85 -76c0 -24 17 -50 46 -69 c96 -63 161 -102 161 -196c0 -86 -64 -145 -151 -153l-13 -46c7 1 12 2 19 2c33 0 49 -17 49 -52c0 -29 -40 -78 -123 -78c-27 0 -54 5 -79 15l15 34c17 -6 39 -10 58 -10c49 0 70 17 70 32s-12 21 -28 21c-11 0 -25 -3 -34 -5z"></glyph><glyph glyph-name="scircumflex" unicode="ŝ" d="M-17 74l41 48c40 -48 84 -72 128 -72c48 0 98 39 98 93c0 29 -15 58 -42 77c-108 77 -165 108 -165 183c0 80 70 142 158 142c66 0 103 -31 138 -73l-37 -56c-29 41 -63 66 -106 66c-50 0 -85 -41 -85 -76c0 -24 17 -50 46 -69c96 -63 161 -102 161 -196 c0 -92 -73 -154 -169 -154c-64 0 -122 31 -166 87zM52 628l163 125h68l124 -125h-89l-75 74l-100 -74h-91z"></glyph><glyph glyph-name="uni0219" unicode="ș" d="M-17 74l41 48c40 -48 84 -72 128 -72c48 0 98 39 98 93c0 29 -15 58 -42 77c-108 77 -165 108 -165 183c0 80 70 142 158 142c66 0 103 -31 138 -73l-37 -56c-29 41 -63 66 -106 66c-50 0 -85 -41 -85 -76c0 -24 17 -50 46 -69c96 -63 161 -102 161 -196 c0 -92 -73 -154 -169 -154c-64 0 -122 31 -166 87zM87 -101l6 39c15 5 30 7 46 7c51 0 77 -18 77 -53c0 -45 -44 -78 -112 -78c-21 0 -44 4 -71 11l11 35c22 -5 39 -7 50 -7c43 0 64 11 64 32c0 14 -12 21 -36 21c-9 0 -20 -2 -35 -7z"></glyph><glyph glyph-name="tbar" unicode="ŧ" d="M210 472l-24 -176h121l-8 -56h-121l-32 -240h-69l33 240h-105l7 56h105l24 176h-91l8 59h91l28 199h67l-26 -199h105l-8 -59h-105z"></glyph><glyph glyph-name="tcaron" unicode="ť" d="M299 568l-27 13c24 29 38 54 41 75h-33l14 80h66l-5 -35c-7 -63 -17 -90 -56 -133zM149 531l28 199h67l-26 -199h105l-8 -59h-105l-64 -472h-69l64 472h-91l8 59h91z"></glyph><glyph glyph-name="tcommaaccent" unicode="ţ" d="M149 531l28 199h67l-26 -199h105l-7 -60h-106l-64 -471h-69l65 471h-92l8 60h91zM51 -101l6 39c15 5 30 7 46 7c51 0 77 -18 77 -53c0 -45 -44 -78 -112 -78c-21 0 -44 4 -71 11l11 35c22 -5 39 -7 50 -7c43 0 64 11 64 32c0 14 -12 21 -36 21c-9 0 -20 -2 -35 -7z"></glyph><glyph glyph-name="ubreve" unicode="ŭ" d="M65 329l27 202h68l-30 -222c-6 -45 -13 -86 -13 -121c0 -84 63 -138 148 -138c53 0 103 24 132 62c33 43 37 96 45 154l38 265h66l-27 -201c-16 -118 -31 -203 -67 -254c-40 -55 -110 -89 -190 -89c-124 0 -210 83 -210 198c0 22 4 75 13 144zM467 745h62 c-22 -58 -87 -103 -185 -103c-95 0 -153 41 -161 103h64c18 -35 53 -51 104 -51c52 0 83 13 116 51z"></glyph><glyph glyph-name="uhungarumlaut" unicode="ű" d="M65 329l27 202h68l-30 -222c-6 -45 -13 -86 -13 -121c0 -84 63 -138 148 -138c53 0 103 24 132 62c33 43 37 96 45 154l38 265h66l-27 -201c-16 -118 -31 -203 -67 -254c-40 -55 -110 -89 -190 -89c-124 0 -210 83 -210 198c0 22 4 75 13 144zM192 630l128 151h105 l-166 -151h-67zM346 630l128 151h105l-165 -151h-68z"></glyph><glyph glyph-name="umacron" unicode="ū" d="M65 329l27 202h68l-30 -222c-6 -45 -13 -86 -13 -121c0 -84 63 -138 148 -138c53 0 103 24 132 62c33 43 37 96 45 154l38 265h66l-27 -201c-16 -118 -31 -203 -67 -254c-40 -55 -110 -89 -190 -89c-124 0 -210 83 -210 198c0 22 4 75 13 144zM176 663l8 60h337l-8 -60 h-337z"></glyph><glyph glyph-name="uogonek" unicode="ų" d="M362 -145l-11 -42c-14 -3 -29 -4 -42 -4c-69 0 -99 25 -99 87c0 24 20 63 55 91h-3c-124 0 -210 83 -210 198c0 22 4 75 13 144l27 202h68l-30 -222c-6 -45 -13 -86 -13 -121c0 -84 63 -138 148 -138c53 0 103 24 132 62c33 43 37 96 45 154l38 265h66l-27 -201 c-16 -118 -31 -203 -67 -254c-28 -39 -71 -67 -122 -80c-42 -33 -65 -65 -65 -89c0 -38 17 -55 62 -55c10 0 26 2 35 3z"></glyph><glyph glyph-name="uring" unicode="ů" d="M65 329l27 202h68l-30 -222c-6 -45 -13 -86 -13 -121c0 -84 63 -138 148 -138c53 0 103 24 132 62c33 43 37 96 45 154l38 265h66l-27 -201c-16 -118 -31 -203 -67 -254c-40 -55 -110 -89 -190 -89c-124 0 -210 83 -210 198c0 22 4 75 13 144zM352 815 c56 0 101 -44 101 -101c0 -56 -45 -102 -101 -102s-102 46 -102 102s45 101 102 101zM352 773c-34 1 -59 -26 -59 -59c0 -34 28 -59 59 -59c33 0 59 27 59 59c1 33 -27 59 -59 59z"></glyph><glyph glyph-name="utilde" unicode="ũ" d="M65 329l27 202h68l-30 -222c-6 -45 -13 -86 -13 -121c0 -84 63 -138 148 -138c53 0 103 24 132 62c33 43 37 96 45 154l38 265h66l-27 -201c-16 -118 -31 -203 -67 -254c-40 -55 -110 -89 -190 -89c-124 0 -210 83 -210 198c0 22 4 75 13 144zM421 702c28 0 53 13 78 26 l27 -47c-37 -24 -70 -42 -116 -42c-63 0 -87 39 -133 39c-31 0 -55 -16 -82 -34l-25 50c34 31 74 47 116 47c57 0 89 -39 135 -39z"></glyph><glyph glyph-name="wacute" unicode="ẃ" d="M189 0l-155 531h68l109 -375l200 375h12l121 -378l195 378h74l-275 -531h-14l-123 375l-199 -375h-13zM381 630l128 151h105l-166 -151h-67z"></glyph><glyph glyph-name="wcircumflex" unicode="ŵ" d="M189 0l-155 531h68l109 -375l200 375h12l121 -378l195 378h74l-275 -531h-14l-123 375l-199 -375h-13zM233 628l163 125h68l124 -125h-89l-75 74l-100 -74h-91z"></glyph><glyph glyph-name="wdieresis" unicode="ẅ" d="M189 0l-155 531h68l109 -375l200 375h12l121 -378l195 378h74l-275 -531h-14l-123 375l-199 -375h-13zM367 741c30 0 49 -19 49 -57c0 -23 -28 -56 -64 -56c-29 0 -49 18 -49 56c0 23 29 57 64 57zM567 741c30 0 48 -19 48 -57c0 -22 -28 -56 -64 -56 c-30 0 -49 18 -49 56c0 22 29 57 65 57z"></glyph><glyph glyph-name="wgrave" unicode="ẁ" d="M189 0l-155 531h68l109 -375l200 375h12l121 -378l195 378h74l-275 -531h-14l-123 375l-199 -375h-13zM332 781h105l85 -151h-67z"></glyph><glyph glyph-name="ycircumflex" unicode="ŷ" d="M187 65l-164 466h71l137 -392l228 392h75l-420 -725h-77zM126 628l163 125h68l124 -125h-89l-75 74l-100 -74h-91z"></glyph><glyph glyph-name="ygrave" unicode="ỳ" d="M187 65l-164 466h71l137 -392l228 392h75l-420 -725h-77zM185 781h105l85 -151h-67z"></glyph><glyph glyph-name="zacute" unicode="ź" d="M37 471l8 60h365l-317 -471h288l-8 -60h-401l319 471h-254zM178 630l128 151h105l-166 -151h-67z"></glyph><glyph glyph-name="zdotaccent" unicode="ż" d="M37 471l8 60h365l-317 -471h288l-8 -60h-401l319 471h-254zM263 741c30 0 49 -19 49 -57c0 -23 -28 -56 -64 -56c-29 0 -49 18 -49 56c0 23 29 57 64 57z"></glyph><glyph glyph-name="kgreenlandic" unicode="ĸ" d="M19 0l75 531h67l-28 -197l256 197h107l-309 -237l272 -294h-91l-245 264l-36 -264h-68z"></glyph><glyph glyph-name="napostrophe" unicode="ŉ" d="M17 0l74 531h65l-10 -81c54 63 116 95 187 95c111 0 183 -72 183 -187c0 -23 -4 -61 -11 -114l-33 -244h-67l32 244c7 52 11 90 11 115c0 75 -49 124 -122 124c-36 0 -69 -9 -100 -28c-31 -18 -55 -43 -72 -75c-17 -31 -29 -82 -38 -151l-32 -229h-67zM12 467l-35 22 c17 29 29 50 34 63c6 13 11 30 15 49h-43l19 135h86l-6 -60c-5 -51 -13 -91 -24 -120c-10 -29 -25 -58 -46 -89z"></glyph><glyph glyph-name="Delta" unicode="∆" d="M587 0h-565v35c82 222 163 443 244 665h80c80 -222 161 -443 241 -665v-35zM507 58c-62 172 -124 345 -186 517c-8 23 -11 40 -16 55h-3c-3 -14 -9 -35 -15 -54c-62 -173 -125 -345 -187 -518h407z"></glyph><glyph glyph-name="Omega" unicode="Ω" d="M661 0h-225v57c62 53 155 147 155 320c0 156 -81 276 -232 276c-142 0 -238 -115 -238 -276c0 -168 88 -263 156 -320v-57h-225v57h156c-65 51 -157 153 -157 328c0 187 126 327 308 327c192 0 302 -134 302 -325c0 -159 -85 -272 -158 -330h158v-57z"></glyph><glyph glyph-name="uni03BC" unicode="μ" d="M394 0l8 58c-44 -46 -94 -70 -157 -70c-62 0 -107 22 -139 68l-34 -250h-68l100 725h68l-39 -280c-3 -21 -6 -46 -6 -61c0 -83 58 -128 130 -128c69 0 133 47 156 114c8 23 12 53 16 83l38 272h69l-73 -531h-69z"></glyph><glyph glyph-name="pi" unicode="π" d="M597 54l14 -48c-14 -8 -37 -13 -61 -13c-82 0 -116 56 -116 129v324h-199v-314c0 -54 -5 -100 -14 -132h-68c10 38 15 88 15 135v311c-30 0 -76 -10 -104 -23c-6 17 -13 33 -20 50c27 13 77 27 140 27h426v-54h-108v-318c0 -49 17 -81 64 -81c10 0 21 3 31 7z"></glyph><glyph glyph-name="Euro" unicode="€" d="M32 472h42c34 84 87 149 160 195c74 47 160 69 258 69c25 0 50 -2 76 -7l-28 -69c-16 4 -33 6 -51 6c-75 0 -141 -17 -199 -50c-57 -33 -103 -81 -136 -144h320l-28 -69h-316c-7 -23 -10 -49 -10 -83h291l-27 -69h-255c13 -62 46 -110 99 -146c53 -37 115 -55 185 -55 c27 0 51 2 72 7l-9 -68c-19 -4 -39 -6 -60 -6c-94 0 -174 24 -240 72s-107 112 -122 196h-71l26 69h37c3 44 6 71 9 83h-51z"></glyph><glyph glyph-name="afii61289" unicode="ℓ" d="M416 55c-26 -28 -70 -68 -131 -68c-35 0 -61 12 -80 31c-23 25 -35 66 -35 115v121c-21 -23 -40 -45 -61 -67c-10 12 -21 23 -31 35c30 34 61 68 92 102v235c0 113 45 169 116 169c70 0 94 -60 94 -103c0 -95 -48 -178 -112 -264c-10 -12 -25 -32 -34 -42v-188 c0 -65 27 -91 64 -91s68 28 90 53c9 -13 19 -25 28 -38zM327 618c0 29 -11 57 -39 57c-33 0 -54 -30 -54 -116v-165c7 8 16 21 22 30c42 64 71 134 71 194z"></glyph><glyph glyph-name="estimated" unicode="℮" d="M621 295h-455v-203c44 -43 98 -66 162 -66c104 0 168 52 218 134c12 -7 24 -15 37 -22c-61 -91 -131 -150 -255 -150c-176 0 -288 138 -288 307c0 171 109 308 289 308c183 0 288 -137 292 -308zM492 333v165c-43 42 -101 68 -164 68s-119 -22 -162 -67v-166h326z"></glyph><glyph glyph-name="partialdiff" unicode="∂" d="M527 490c0 -58 -9 -126 -26 -194c-37 -145 -128 -306 -278 -306c-103 0 -173 73 -173 186c0 194 135 323 266 323c72 0 118 -37 138 -76h2c2 21 4 44 4 73c0 116 -53 176 -142 176c-31 0 -68 -10 -97 -27c-6 16 -12 33 -18 49c24 15 74 32 123 32c120 0 201 -81 201 -236 zM445 354c-14 51 -55 92 -125 92c-107 0 -203 -120 -203 -272c0 -80 44 -130 108 -130c101 0 184 123 220 310z"></glyph><glyph glyph-name="product" unicode="∏" d="M633 -230h-68v871h-409v-871h-68v930h545v-930z"></glyph><glyph glyph-name="summation" unicode="∑" d="M604 -230h-576v30c113 147 226 292 340 439c-106 142 -210 284 -316 425v36h527v-57h-436c100 -134 200 -268 299 -403c-106 -138 -213 -275 -319 -413h481v-57z"></glyph><glyph glyph-name="uni2219" unicode="∙" d="M124 419c33 0 59 -28 59 -60c0 -33 -26 -59 -59 -59s-60 26 -60 59c0 32 26 60 60 60z"></glyph><glyph glyph-name="radical" unicode="√" d="M494 728c-66 -247 -131 -493 -198 -740h-56c-47 116 -94 232 -142 348c-18 -10 -37 -21 -55 -32c-8 14 -15 28 -23 42c37 21 74 43 110 65c46 -111 91 -222 137 -333c58 216 115 434 173 650h54z"></glyph><glyph glyph-name="infinity" unicode="∞" d="M733 294c0 -88 -60 -162 -158 -162c-81 0 -144 52 -182 114h-2c-43 -64 -106 -114 -179 -114c-98 0 -161 67 -161 158c0 94 62 161 158 161c87 0 146 -57 182 -113h2c33 50 93 113 178 113c94 0 162 -62 162 -157zM673 293c0 57 -32 106 -103 106 c-64 0 -110 -45 -150 -107c40 -68 93 -107 149 -107c73 0 104 51 104 108zM364 292c-38 63 -96 107 -151 107c-71 0 -103 -51 -103 -109c0 -62 44 -106 103 -106c63 0 114 50 151 108z"></glyph><glyph glyph-name="integral" unicode="∫" d="M411 684c-9 4 -28 9 -46 9c-57 0 -86 -37 -86 -102v-657c0 -101 -56 -160 -147 -160c-22 0 -53 5 -67 11c5 18 9 35 14 53c12 -5 27 -9 47 -9c57 0 86 36 86 102v658c0 98 54 160 148 160c25 0 55 -7 66 -13c-5 -17 -10 -35 -15 -52z"></glyph><glyph glyph-name="approxequal" unicode="≈" d="M531 420c-31 -47 -71 -83 -130 -83c-37 0 -73 12 -105 32c-27 17 -57 32 -88 32c-36 0 -67 -30 -87 -65l-45 50c30 45 68 83 131 83c39 0 73 -13 103 -31c32 -20 59 -33 89 -33c35 0 66 29 87 65zM531 203c-31 -47 -71 -83 -130 -83c-37 0 -73 12 -105 32 c-27 17 -57 32 -88 32c-36 0 -67 -30 -87 -65l-45 51c30 45 68 82 131 82c39 0 73 -13 103 -31c32 -20 59 -33 89 -33c35 0 66 29 87 65z"></glyph><glyph glyph-name="notequal" unicode="≠" d="M513 152h-242l-58 -126h-73l59 126h-105v68h137l69 150h-206v68h238l61 131h72l-61 -131h109v-68h-141l-70 -150h211v-68z"></glyph><glyph glyph-name="lessequal" unicode="≤" d="M513 0h-419v68h419v-68zM513 135l-419 194v50l419 194v-74l-321 -144v-2l321 -145v-73z"></glyph><glyph glyph-name="greaterequal" unicode="≥" d="M512 0h-418v68h418v-68zM513 329l-419 -194v74l321 144v2l-321 145v73l419 -193v-51z"></glyph><glyph glyph-name="lozenge" unicode="◊" d="M505 350c-68 -117 -137 -233 -206 -350h-37c-68 116 -137 233 -206 349c69 117 138 234 206 351h37c69 -117 138 -233 206 -350zM445 350c-55 92 -110 185 -164 278c-55 -93 -110 -186 -165 -278c55 -93 109 -185 164 -278c55 93 110 185 165 278z"></glyph><glyph glyph-name="uni00A0" unicode=" "></glyph><glyph glyph-name="uni00AD" unicode="­" d="M2 240l8 60h269l-8 -60h-269z"></glyph><glyph glyph-name="uni02C9" unicode="ˉ" d="M114 663l8 60h337l-8 -60h-337z"></glyph><glyph glyph-name="zero.denominator" unicode="" d="M280 238c0 -67 -16 -125 -48 -174s-75 -73 -129 -73c-68 0 -117 48 -117 139c0 74 16 134 49 179c33 46 75 69 126 69c68 0 119 -51 119 -140zM226 244c0 56 -29 87 -69 87c-31 0 -58 -18 -81 -55s-35 -86 -35 -149c0 -61 29 -89 64 -89c33 0 61 19 85 57s36 88 36 149z "></glyph><glyph glyph-name="one.denominator" unicode="" d="M75 321l22 48h99l-59 -369h-53l51 321h-60z"></glyph><glyph glyph-name="two.denominator" unicode="" d="M81 248h-55c3 85 60 130 140 130c68 0 119 -42 119 -99c0 -17 -4 -34 -13 -51c-8 -17 -30 -42 -66 -76l-111 -103h172l-8 -49h-291l195 182c45 42 68 74 68 97c0 29 -31 52 -70 52c-51 0 -77 -28 -80 -83z"></glyph><glyph glyph-name="three.denominator" unicode="" d="M86 279h-54c7 64 64 99 125 99c65 0 116 -40 116 -99c0 -36 -20 -63 -60 -81c34 -22 51 -49 51 -82c0 -35 -15 -65 -45 -89c-29 -24 -65 -36 -107 -36c-69 0 -127 41 -134 116h54c7 -45 34 -68 81 -68c51 0 96 34 96 74c0 43 -36 65 -108 65l6 45h16c52 0 96 23 96 58 c0 28 -32 49 -65 49c-39 0 -62 -17 -68 -51z"></glyph><glyph glyph-name="four.denominator" unicode="" d="M-41 76l296 314l-42 -265h59l-7 -49h-59l-12 -76h-53l12 76h-194zM161 125l17 110l-104 -110h87z"></glyph><glyph glyph-name="five.denominator" unicode="" d="M42 187l62 182h184l-8 -48h-137l-26 -74h17c34 0 63 -12 87 -35c25 -23 37 -52 37 -85c0 -36 -14 -68 -42 -95s-65 -41 -110 -41c-64 0 -110 28 -137 84l49 18c19 -36 49 -54 89 -54c49 0 96 34 96 87c0 43 -30 76 -85 76c-22 0 -47 -5 -76 -15z"></glyph><glyph glyph-name="six.denominator" unicode="" d="M62 264l115 114l42 -28l-99 -99c9 1 17 1 22 1c33 0 63 -12 90 -36s40 -55 40 -93c0 -36 -14 -67 -43 -93c-28 -26 -64 -39 -107 -39c-87 0 -143 52 -143 123c0 48 19 87 83 150zM218 126c0 47 -39 82 -91 82c-55 0 -95 -41 -95 -89c0 -47 38 -80 89 -80 c53 0 97 38 97 87z"></glyph><glyph glyph-name="seven.denominator" unicode="" d="M15 321l9 48h282l-279 -378l-45 26l225 304h-192z"></glyph><glyph glyph-name="eight.denominator" unicode="" d="M203 199c42 -20 63 -48 63 -85c0 -34 -15 -63 -45 -87c-29 -24 -67 -36 -112 -36c-37 0 -69 10 -95 29c-26 20 -39 45 -39 74c0 49 31 85 92 110c-31 18 -46 41 -46 69s14 52 41 73c28 21 60 32 97 32c68 0 115 -43 115 -91c0 -36 -24 -65 -71 -88zM220 283 c0 25 -26 47 -63 47c-45 0 -82 -28 -82 -60c0 -27 27 -45 66 -45c44 0 79 26 79 58zM213 115c0 29 -29 61 -78 61c-57 0 -106 -33 -106 -78c0 -37 35 -61 83 -61c59 0 101 37 101 78z"></glyph><glyph glyph-name="nine.denominator" unicode="" d="M202 105l-116 -114l-41 29l99 98c-9 -1 -16 -1 -21 -1c-31 0 -61 11 -89 34s-42 55 -42 95c0 36 14 67 42 93s64 39 108 39c88 0 144 -51 144 -123c0 -48 -20 -87 -84 -150zM45 243c0 -47 40 -81 91 -81c56 0 96 40 96 88c0 47 -39 80 -88 80c-55 0 -99 -38 -99 -87z"></glyph><glyph glyph-name="zero.numerator" unicode="" d="M325 597c0 -67 -16 -125 -48 -174s-75 -73 -129 -73c-68 0 -117 48 -117 139c0 74 16 134 49 179c33 46 75 69 126 69c68 0 119 -51 119 -140zM271 603c0 56 -29 87 -69 87c-31 0 -58 -18 -81 -55s-35 -86 -35 -149c0 -61 29 -89 64 -89c33 0 61 19 85 57s36 88 36 149z "></glyph><glyph glyph-name="one.numerator" unicode="" d="M123 679l21 48h99l-58 -369h-54l51 321h-59z"></glyph><glyph glyph-name="two.numerator" unicode="" d="M121 606h-55c3 85 60 130 140 130c68 0 119 -42 119 -99c0 -17 -4 -34 -13 -51c-8 -17 -30 -42 -66 -76l-111 -103h172l-8 -49h-291l195 182c45 42 68 74 68 97c0 29 -31 52 -70 52c-51 0 -77 -28 -80 -83z"></glyph><glyph glyph-name="three.numerator" unicode="" d="M134 637h-54c7 64 64 99 125 99c65 0 116 -39 116 -99c0 -36 -20 -63 -60 -81c34 -22 51 -49 51 -82c0 -35 -15 -65 -45 -89c-29 -24 -65 -36 -107 -36c-71 0 -127 41 -134 117h54c7 -46 34 -69 81 -69c51 0 96 35 96 75c0 43 -36 64 -109 64l7 46c7 -1 12 -1 15 -1 c51 0 97 23 97 58c0 29 -32 49 -65 49c-39 0 -62 -17 -68 -51z"></glyph><glyph glyph-name="four.numerator" unicode="" d="M6 434l297 314l-43 -266h60l-8 -48h-59l-12 -76h-53l12 76h-194zM208 482l18 111l-104 -111h86z"></glyph><glyph glyph-name="five.numerator" unicode="" d="M89 544l63 183h183l-8 -48h-137l-26 -75c7 1 13 1 17 1c34 0 63 -12 88 -35s37 -52 37 -85c0 -36 -14 -68 -43 -95c-28 -27 -65 -41 -110 -41c-63 0 -109 28 -137 84l49 18c19 -36 49 -54 89 -54c51 0 96 36 96 87c0 44 -30 77 -85 77c-22 0 -47 -6 -76 -17z"></glyph><glyph glyph-name="six.numerator" unicode="" d="M110 622l115 114l42 -28l-100 -99c10 1 17 2 22 2c31 0 61 -12 89 -35s42 -54 42 -95c0 -35 -14 -66 -43 -93c-28 -26 -64 -39 -108 -39c-87 0 -143 52 -143 123c0 49 20 87 84 150zM266 485c0 45 -38 81 -91 81c-55 0 -95 -41 -95 -89c0 -47 39 -80 88 -80 c55 0 98 39 98 88z"></glyph><glyph glyph-name="seven.numerator" unicode="" d="M62 679l10 48h282l-279 -378l-45 26l225 304h-193z"></glyph><glyph glyph-name="eight.numerator" unicode="" d="M250 557c42 -19 63 -48 63 -85c0 -34 -15 -63 -45 -87c-29 -24 -66 -36 -111 -36c-37 0 -69 10 -96 30c-26 20 -39 45 -39 74c0 48 31 84 92 109c-31 18 -46 41 -46 69s14 52 41 73c28 21 60 32 97 32c67 0 116 -42 116 -91c0 -36 -24 -65 -72 -88zM267 641 c0 25 -26 47 -62 47c-47 0 -83 -28 -83 -60c0 -25 25 -45 66 -45c44 0 79 27 79 58zM260 473c0 32 -30 61 -78 61c-56 0 -105 -32 -105 -77c0 -39 35 -61 82 -61c60 0 101 36 101 77z"></glyph><glyph glyph-name="nine.numerator" unicode="" d="M250 463l-116 -114l-41 29l98 98c-9 -1 -16 -1 -21 -1c-31 0 -61 11 -89 34s-42 55 -42 95c0 36 14 67 42 93c29 26 65 39 108 39c88 0 144 -53 144 -122c0 -49 -20 -87 -83 -151zM93 601c0 -47 39 -81 91 -81c55 0 95 40 95 88c0 47 -37 80 -88 80 c-55 0 -98 -38 -98 -87z"></glyph><glyph glyph-name="uni2215" unicode="∕" d="M-138 -18h-54l455 754h55z"></glyph><glyph glyph-name="uni03A9" unicode="Ω" d="M661 0h-225v57c62 53 155 147 155 320c0 156 -81 276 -232 276c-142 0 -238 -115 -238 -276c0 -168 88 -263 156 -320v-57h-225v57h156c-65 51 -157 153 -157 328c0 187 126 327 308 327c192 0 302 -134 302 -325c0 -159 -85 -272 -158 -330h158v-57z"></glyph><glyph glyph-name="uni021A" unicode="Ț" d="M27 649l9 69h429l-9 -69h-183l-86 -649h-72l86 649h-174zM92 -101l6 39c15 5 30 7 46 7c51 0 77 -18 77 -53c0 -45 -44 -78 -112 -78c-21 0 -44 4 -71 11l11 35c22 -5 39 -7 50 -7c43 0 64 11 64 32c0 14 -12 21 -36 21c-9 0 -20 -2 -35 -7z"></glyph><glyph glyph-name="uni021B" unicode="ț" d="M149 531l28 199h67l-26 -199h105l-7 -60h-106l-64 -471h-69l65 471h-92l8 60h91zM51 -101l6 39c15 5 30 7 46 7c51 0 77 -18 77 -53c0 -45 -44 -78 -112 -78c-21 0 -44 4 -71 11l11 35c22 -5 39 -7 50 -7c43 0 64 11 64 32c0 14 -12 21 -36 21c-9 0 -20 -2 -35 -7z"></glyph></font>
</defs>
</svg>
